SKA-P – 99%




No Cover available

Artist: SKA-P
Year: 2013
Genre: Ska
Notes: Discogs
Add. Notes:
Watch Songs on: YouTube
Cover incl.: Yes
Encoder: FLAC
Bitrate: ~1100 kBit/s (44.1 kHz/16 Bit/s)
Log & Cue incl.: Yes
Size: 524 MB
Password: “slam” (without ” “)


All Downloads/Hosters are compatible

Download 1
KatFile.com
Turbobit.net
FileFactory.com
Rapidgator.net
Download 2
KatFile.com
Turbobit.net
FileFactory.com
Rapidgator.net

Tracklist:

1 - Full Gas - 3:09
2 - Canto A La Rebelión - 4:39
3 - Ciudadano Papagayo - 4:08
4 - Pandemia S.L. - 4:02
5 - Se Acabó - 4:10
6 - Ska-Pa - 3:53
7 - Marinaleda - 4:23
8 - Ali Babá - 2:56
9 - Victoria - 3:22
10 - Bajo Vigilancia - 4:03
11 - Maquis - 5:06
12 - Oniomanos - 3:20
13 - ¿Quiénes Sois? - 4:09
14 - Radio Falacia - 3:30
15 - África Agónica - 4:51

EAC-Log, CUE-Sheed & NFO:

Click to open spoiler
Exact Audio Copy V1.0 beta 3 from 29. August 2011

????? EAC ?? ??????????, ??????????? 10. ??? 2013, 10:52

SKA-P / 99%

????????: PLEXTOR DVDR PX-B300SA Adapter: 2 ID: 0

????? ?????? : ?????????????
????????????? ??????? ?????? : ??
?????????? ???? ????? : ??
????????????? ?????????? C2 : ???

????????? ???????? ??? ?????? : 667
??????????? ?????? ??????? Lead-in ? Lead-out : ???
?????????? ??????????? ??????? ??????? : ??
???????? ?????? ? ??????? ? ?????? ? ????? : ???
??? ??????????? CRC ?????????????? ??????? ?????? : ??
????????? : ?????????? Win32-????????? ??? Win NT/2000

???????? ?????? : ???????????????? ??????????
????????? ??????? : 1024 kBit/s
???????? : ???????
?????????? ID3-???? : ??
??????? ?????? : C:\Program Files (x86)\Exact Audio Copy\Flac\flac.exe
?????????????? ????????? : -V -8 -T “Date=%year%” -T “Genre=%genre%” %source%

TOC ???????????? CD

???? | ????? | ???????????? | ????????? ?????? | ???????? ??????
———————————————————————
1 | 0:00.00 | 3:08.48 | 0 | 14147
2 | 3:08.48 | 4:38.18 | 14148 | 35015
3 | 7:46.66 | 4:07.26 | 35016 | 53566
4 | 11:54.17 | 4:01.57 | 53567 | 71698
5 | 15:55.74 | 4:09.33 | 71699 | 90406
6 | 20:05.32 | 3:52.69 | 90407 | 107875
7 | 23:58.26 | 4:22.33 | 107876 | 127558
8 | 28:20.59 | 2:55.16 | 127559 | 140699
9 | 31:16.00 | 3:21.34 | 140700 | 155808
10 | 34:37.34 | 4:02.30 | 155809 | 173988
11 | 38:39.64 | 5:05.27 | 173989 | 196890
12 | 43:45.16 | 3:19.22 | 196891 | 211837
13 | 47:04.38 | 4:08.32 | 211838 | 230469
14 | 51:12.70 | 3:29.57 | 230470 | 246201
15 | 54:42.52 | 4:51.34 | 246202 | 268060

?????????????? ????????? ?????????? ? ????????? ?? ???????

????????? ????????

??? ????? E:\My Torrents\SKA-P\2013_99\SKA-P – 99%.wav

??????? ??????? 96.5 %
???????? ?????????? 7.4 X
???????? ????????? 100.0 %
CRC ????? 347F4235
CRC ????? 347F4235
???????????… OK

?????? ?? ?????????

AccurateRip: ??????

???? 1 ??????????? ? ???? ??????
???? 2 ??????????? ? ???? ??????
???? 3 ??????????? ? ???? ??????
???? 4 ??????????? ? ???? ??????
???? 5 ??????????? ? ???? ??????
???? 6 ??????????? ? ???? ??????
???? 7 ??????????? ? ???? ??????
???? 8 ??????????? ? ???? ??????
???? 9 ??????????? ? ???? ??????
???? 10 ??????????? ? ???? ??????
???? 11 ??????????? ? ???? ??????
???? 12 ??????????? ? ???? ??????
???? 13 ??????????? ? ???? ??????
???? 14 ??????????? ? ???? ??????
???? 15 ??????????? ? ???? ??????

?? ?????? ????? ??? ? ???? AccurateRip

????? ??????

==== ??????????? ????? ?????? E178B1C08B6BDA5E9DC5A83F08ED8730E3A993E4FFA0419A4B54242680CCA607 ====

REM GENRE Ska
REM DATE 2013
REM DISCID D20DF60F
REM COMMENT “ExactAudioCopy v1.0b3″
PERFORMER ” SKA-P”
TITLE “99%”
FILE “SKA-P – 99%.flac” WAVE
TRACK 01 AUDIO
TITLE “01-Full Gas”
PERFORMER ” SKA-P”
INDEX 01 00:00:00
TRACK 02 AUDIO
TITLE “02-Canto A La Rebelion”
PERFORMER ” SKA-P”
INDEX 01 03:08:48
TRACK 03 AUDIO
TITLE “03-Ciudadano Papagayo”
PERFORMER ” SKA-P”
INDEX 01 07:46:66
TRACK 04 AUDIO
TITLE “04-Pandemia Sl”
PERFORMER ” SKA-P”
INDEX 01 11:54:17
TRACK 05 AUDIO
TITLE “05-Se Acabo”
PERFORMER ” SKA-P”
INDEX 01 15:55:74
TRACK 06 AUDIO
TITLE “06-Ska-Pa”
PERFORMER ” SKA-P”
INDEX 01 20:05:32
TRACK 07 AUDIO
TITLE “07-Marinaleda”
PERFORMER ” SKA-P”
INDEX 01 23:58:26
TRACK 08 AUDIO
TITLE “08-Ali Baba”
PERFORMER ” SKA-P”
INDEX 01 28:20:59
TRACK 09 AUDIO
TITLE “09-Victoria”
PERFORMER ” SKA-P”
INDEX 01 31:16:00
TRACK 10 AUDIO
TITLE “10-Bajo Vigilancia”
PERFORMER ” SKA-P”
INDEX 01 34:37:34
TRACK 11 AUDIO
TITLE “11-Maquis”
PERFORMER ” SKA-P”
INDEX 01 38:39:64
TRACK 12 AUDIO
TITLE “12-Oniomanos”
PERFORMER ” SKA-P”
INDEX 01 43:45:16
TRACK 13 AUDIO
TITLE “13-®Quines Sois_”
PERFORMER ” SKA-P”
INDEX 01 47:04:38
TRACK 14 AUDIO
TITLE “14-Radio Falacia”
PERFORMER ” SKA-P”
INDEX 01 51:12:70
TRACK 15 AUDIO
TITLE “15-Africa Agonica”
PERFORMER ” SKA-P”
INDEX 01 54:42:52


Leave a Reply

Your email address will not be published. Required fields are marked *

Enter the text from the image below
 

This site uses Akismet to reduce spam. Learn how your comment data is processed.