Silverstein – Redux: The First 10 Years




Artist: Silverstein
Year: 2019
Genre: Hardcore
Notes: Discogs
Add. Notes:
Cover incl.: Yes
Encoder: FLAC
Bitrate: ~1100 kBit/s (44.1 kHz/16 Bit/s)
Log & Cue incl.: Yes
Size: 326,95 MB
Password: “slam” (without ” “)


All Downloads/Hosters are compatible

Download 1
Turbobit.net
NitroFlare.com
KatFile.com
Rapidgator.net
Download 2
Turbobit.net
NitroFlare.com
KatFile.com
Rapidgator.net

Tracklist:

1 - Smashed Into Pieces - 3:40
2 - Smile In Your Sleep - 3:16
3 - American Dream - 3:10
4 - Bleeds No More - 3:16
5 - My Heroine - 3:30
6 - Vices - 3:16
7 - Your Sword vs My Dagger - 3:00
8 - If You Could See Into My Soul - 4:00
9 - Giving Up - 4:08
10 - Still Dreaming - 4:17
11 - Red Light Pledge - 3:51
12 - Call It Karma - 4:15

EAC-Log, CUE-Sheed & NFO:

Click to open spoiler
Exact Audio Copy V1.3 from 2. September 2016

EAC extraction logfile from 20. May 2019, 20:22

Silverstein / Redux: The First 10 Years

Used drive : HL-DT-STDVD+-RW GX10N Adapter: 1 ID: 0

Read mode : Secure
Utilize accurate stream : Yes
Defeat audio cache : Yes
Make use of C2 pointers : No

Read offset correction : 667
Overread into Lead-In and Lead-Out : No
Fill up missing offset samples with silence : Yes
Delete leading and trailing silent blocks : No
Null samples used in CRC calculations : Yes
Used interface : Native Win32 interface for Win NT & 2000
Gap handling : Appended to previous track

Used output format : User Defined Encoder
Selected bitrate : 896 kBit/s
Quality : High
Add ID3 tag : No
Command line compressor : C:\Program Files (x86)\FLAC Frontend\tools\flac.exe
Additional command line options : -8 -e -p -V -T “ARTIST=%artist%” -T “TITLE=%title%” -T “ALBUM=%albumtitle%” -T “DATE=%year%” -T “TRACKNUMBER=%tracknr%” -T “GENRE=%genre%” -T “PERFORMER=%albuminterpret%” -T “COMPOSER=%composer%” %haslyrics%–tag-from-file=LYRICS=”%lyricsfile%”%haslyrics% -T “ALBUMARTIST=%albumartist%” -T “DISCNUMBER=%cdnumber%” -T “TOTALDISCS=%totalcds%” -T “TOTALTRACKS=%numtracks%” -T “COMMENT=%comment%” %source% -o %dest%

TOC of the extracted CD

Track | Start | Length | Start sector | End sector
———————————————————
1 | 0:00.00 | 3:40.02 | 0 | 16501
2 | 3:40.02 | 3:16.30 | 16502 | 31231
3 | 6:56.32 | 3:10.30 | 31232 | 45511
4 | 10:06.62 | 3:15.45 | 45512 | 60181
5 | 13:22.32 | 3:29.45 | 60182 | 75901
6 | 16:52.02 | 3:15.60 | 75902 | 90586
7 | 20:07.62 | 3:00.15 | 90587 | 104101
8 | 23:08.02 | 4:00.15 | 104102 | 122116
9 | 27:08.17 | 4:08.30 | 122117 | 140746
10 | 31:16.47 | 4:16.45 | 140747 | 159991
11 | 35:33.17 | 3:51.15 | 159992 | 177331
12 | 39:24.32 | 4:14.46 | 177332 | 196427

Track 1

Filename D:\Music\Silverstein – Redux The First 10 Years [FLAC] {2019)\01 Smashed Into Pieces.wav

Pre-gap length 0:00:02.00

Peak level 100.0 %
Extraction speed 2.8 X
Track quality 100.0 %
Test CRC 2B6D79CA
Copy CRC 2B6D79CA
Track not present in AccurateRip database
Copy OK

Track 2

Filename D:\Music\Silverstein – Redux The First 10 Years [FLAC] {2019)\02 Smile In Your Sleep.wav

Peak level 100.0 %
Extraction speed 3.0 X
Track quality 100.0 %
Test CRC 512F8E6F
Copy CRC 512F8E6F
Track not present in AccurateRip database
Copy OK

Track 3

Filename D:\Music\Silverstein – Redux The First 10 Years [FLAC] {2019)\03 American Dream.wav

Pre-gap length 4:50:09.21

Peak level 100.0 %
Extraction speed 3.2 X
Track quality 100.0 %
Test CRC 9F9D1291
Copy CRC 9F9D1291
Track not present in AccurateRip database
Copy OK

Track 4

Filename D:\Music\Silverstein – Redux The First 10 Years [FLAC] {2019)\04 Bleeds No More.wav

Pre-gap length 4:50:09.21

Peak level 100.0 %
Extraction speed 3.4 X
Track quality 100.0 %
Test CRC 8EF2E330
Copy CRC 8EF2E330
Track not present in AccurateRip database
Copy OK

Track 5

Filename D:\Music\Silverstein – Redux The First 10 Years [FLAC] {2019)\05 My Heroine.wav

Pre-gap length 4:50:09.21

Peak level 100.0 %
Extraction speed 3.7 X
Track quality 100.0 %
Test CRC 9B834222
Copy CRC 9B834222
Track not present in AccurateRip database
Copy OK

Track 6

Filename D:\Music\Silverstein – Redux The First 10 Years [FLAC] {2019)\06 Vices.wav

Pre-gap length 4:50:09.21

Peak level 100.0 %
Extraction speed 3.8 X
Track quality 100.0 %
Test CRC 17188FEE
Copy CRC 17188FEE
Track not present in AccurateRip database
Copy OK

Track 7

Filename D:\Music\Silverstein – Redux The First 10 Years [FLAC] {2019)\07 Your Sword vs My Dagger.wav

Pre-gap length 4:50:09.21

Peak level 100.0 %
Extraction speed 3.9 X
Track quality 100.0 %
Test CRC 2BD14987
Copy CRC 2BD14987
Track not present in AccurateRip database
Copy OK

Track 8

Filename D:\Music\Silverstein – Redux The First 10 Years [FLAC] {2019)\08 If You Could See Into My Soul.wav

Pre-gap length 4:50:09.21

Peak level 100.0 %
Extraction speed 4.3 X
Track quality 100.0 %
Test CRC 644675A2
Copy CRC 644675A2
Track not present in AccurateRip database
Copy OK

Track 9

Filename D:\Music\Silverstein – Redux The First 10 Years [FLAC] {2019)\09 Giving Up.wav

Pre-gap length 4:50:09.21

Peak level 100.0 %
Extraction speed 4.5 X
Track quality 100.0 %
Test CRC B8F66A12
Copy CRC B8F66A12
Track not present in AccurateRip database
Copy OK

Track 10

Filename D:\Music\Silverstein – Redux The First 10 Years [FLAC] {2019)\10 Still Dreaming (Acoustic).wav

Pre-gap length 4:50:09.21

Peak level 100.0 %
Extraction speed 4.0 X
Track quality 99.9 %
Test CRC 2BD19D8A
Copy CRC 2BD19D8A
Track not present in AccurateRip database
Copy OK

Track 11

Filename D:\Music\Silverstein – Redux The First 10 Years [FLAC] {2019)\11 Red Light Pledge.wav

Pre-gap length 4:50:09.21

Peak level 100.0 %
Extraction speed 4.8 X
Track quality 100.0 %
Test CRC 25D27764
Copy CRC 25D27764
Track not present in AccurateRip database
Copy OK

Track 12

Filename D:\Music\Silverstein – Redux The First 10 Years [FLAC] {2019)\12 Call It Karma.wav

Pre-gap length 4:50:09.21

Peak level 100.0 %
Extraction speed 5.0 X
Track quality 100.0 %
Test CRC BA77B0C9
Copy CRC BA77B0C9
Track not present in AccurateRip database
Copy OK

None of the tracks are present in the AccurateRip database

No errors occurred

End of status report

—- CUETools DB Plugin V2.1.6

[CTDB TOCID: zMqcOXv4vqfTJ3CRB8XETI9s45g-] found
Submit result: already submitted
Track | CTDB Status
1 | (7/7) Accurately ripped
2 | (7/7) Accurately ripped
3 | (7/7) Accurately ripped
4 | (7/7) Accurately ripped
5 | (7/7) Accurately ripped
6 | (7/7) Accurately ripped
7 | (7/7) Accurately ripped
8 | (7/7) Accurately ripped
9 | (7/7) Accurately ripped
10 | (7/7) Accurately ripped
11 | (7/7) Accurately ripped
12 | (7/7) Accurately ripped

==== Log checksum 7E3EA4B8E681461F114F3C5366E9EACEB65E1D16260B1896FA90D8F0A59BEE7A ====

REM GENRE Rock
REM DATE 2019
REM DISCID 8C0A3B0C
REM COMMENT “ExactAudioCopy v1.3”
PERFORMER “Silverstein”
TITLE “Redux: The First 10 Years”
REM COMPOSER “”
FILE “01 Smashed Into Pieces.wav” WAVE
TRACK 01 AUDIO
TITLE “Smashed Into Pieces”
PERFORMER “Silverstein”
REM COMPOSER “”
INDEX 01 00:00:00
FILE “02 Smile In Your Sleep.wav” WAVE
TRACK 02 AUDIO
TITLE “Smile In Your Sleep”
PERFORMER “Silverstein”
REM COMPOSER “”
INDEX 01 00:00:00
TRACK 03 AUDIO
TITLE “American Dream”
PERFORMER “Silverstein”
REM COMPOSER “”
INDEX 00 24:08:09
FILE “03 American Dream.wav” WAVE
INDEX 01 00:00:00
TRACK 04 AUDIO
TITLE “Bleeds No More”
PERFORMER “Silverstein”
REM COMPOSER “”
INDEX 00 24:02:09
FILE “04 Bleeds No More.wav” WAVE
INDEX 01 00:00:00
TRACK 05 AUDIO
TITLE “My Heroine”
PERFORMER “Silverstein”
REM COMPOSER “”
INDEX 00 24:07:24
FILE “05 My Heroine.wav” WAVE
INDEX 01 00:00:00
TRACK 06 AUDIO
TITLE “Vices”
PERFORMER “Silverstein”
REM COMPOSER “”
INDEX 00 24:21:24
FILE “06 Vices.wav” WAVE
INDEX 01 00:00:00
TRACK 07 AUDIO
TITLE “Your Sword vs My Dagger”
PERFORMER “Silverstein”
REM COMPOSER “”
INDEX 00 24:07:39
FILE “07 Your Sword vs My Dagger.wav” WAVE
INDEX 01 00:00:00
TRACK 08 AUDIO
TITLE “If You Could See Into My Soul”
PERFORMER “Silverstein”
REM COMPOSER “”
INDEX 00 23:51:69
FILE “08 If You Could See Into My Soul.wav” WAVE
INDEX 01 00:00:00
TRACK 09 AUDIO
TITLE “Giving Up”
PERFORMER “Silverstein”
REM COMPOSER “”
INDEX 00 24:51:69
FILE “09 Giving Up.wav” WAVE
INDEX 01 00:00:00
TRACK 10 AUDIO
TITLE “Still Dreaming (Acoustic)”
PERFORMER “Silverstein”
REM COMPOSER “”
INDEX 00 24:00:09
FILE “10 Still Dreaming (Acoustic).wav” WAVE
INDEX 01 00:00:00
TRACK 11 AUDIO
TITLE “Red Light Pledge”
PERFORMER “Silverstein”
REM COMPOSER “”
INDEX 00 25:08:24
FILE “11 Red Light Pledge.wav” WAVE
INDEX 01 00:00:00
TRACK 12 AUDIO
TITLE “Call It Karma”
PERFORMER “Silverstein”
REM COMPOSER “”
INDEX 00 24:42:69
FILE “12 Call It Karma.wav” WAVE
INDEX 01 00:00:00


Leave a Reply

Your email address will not be published. Required fields are marked *

This site uses Akismet to reduce spam. Learn how your comment data is processed.