Shinedown – Us And Them




Artist: Shinedown
Year: 2005
Genre: Rock
Notes: Discogs
Add. Notes:
Cover incl.: Yes
Encoder: FLAC
Bitrate: ~1000 kBit/s (44.1 kHz/16 Bit/s)
Log & Cue incl.: Yes
Size: 352 MB
Password: “slam” (without ” “)


All Downloads/Hosters are compatible

Download 1
KatFile.com
Turbobit.net
Rapidgator.net
Download 2
KatFile.com
Turbobit.net
Rapidgator.net

Tracklist:

1 - The Dream - 0:59
2 - Heroes - 3:24
3 - Save Me - 3:33
4 - I Dare You - 3:54
5 - Yer Majesty - 3:01
6 - Beyond The Sun - 4:13
7 - Trade Yourself In - 3:32
8 - Lady So Divine - 7:09
9 - Shed Some Light - 3:41
10 - Begin Again - 3:49
11 - Atmosphere - 4:16
12 - Fake - 4:04
13 - Some Day - 3:14

EAC-Log, CUE-Sheed & NFO:

Click to open spoiler
EAC extraction logfile from 17. August 2006, 15:07 for CD
Shinedown / Us And Them

Used drive : _NEC DVD+-RW ND-3530A Adapter: 0 ID: 0
Read mode : Secure with NO C2, accurate stream, disable cache
Read offset correction : 48
Overread into Lead-In and Lead-Out : No

Used output format : C:\Program Files\Exact Audio Copy\flac.exe (User Defined Encoder)
320 kBit/s
Additional command line options : -V -8 -T “artist=%a” -T “title=%t” -T “album=%g” -T “date=%y” -T “tracknumber=%n” -T “genre=%m” %s

Other options :
Fill up missing offset samples with silence : Yes
Delete leading and trailing silent blocks : No
Native Win32 interface for Win NT & 2000

Track 1
Filename C:\Uploads\01 – The Dream.wav

Pre-gap length 0:00:02.00

Peak level 53.9 %
Track quality 100.0 %
Test CRC D00AC7C4
Copy CRC D00AC7C4
Copy OK

Track 2
Filename C:\Uploads\02 – Heroes.wav

Peak level 93.1 %
Track quality 100.0 %
Test CRC 173EA6BD
Copy CRC 173EA6BD
Copy OK

Track 3
Filename C:\Uploads\03 – Save Me.wav

Peak level 96.6 %
Track quality 100.0 %
Test CRC D5086555
Copy CRC D5086555
Copy OK

Track 4
Filename C:\Uploads\04 – I Dare You.wav

Peak level 96.6 %
Track quality 100.0 %
Test CRC 1D3895D6
Copy CRC 1D3895D6
Copy OK

Track 5
Filename C:\Uploads\05 – Yer Majesty.wav

Peak level 96.6 %
Track quality 100.0 %
Test CRC D212E865
Copy CRC D212E865
Copy OK

Track 6
Filename C:\Uploads\06 – Beyond The Sun.wav

Pre-gap length 0:00:01.64

Peak level 96.6 %
Track quality 100.0 %
Test CRC F29FA457
Copy CRC F29FA457
Copy OK

Track 7
Filename C:\Uploads\07 – Trade Yourself In.wav

Peak level 96.6 %
Track quality 100.0 %
Test CRC F9F8DC2D
Copy CRC F9F8DC2D
Copy OK

Track 8
Filename C:\Uploads\08 – Lady So Divine.wav

Peak level 96.6 %
Track quality 100.0 %
Test CRC DCA5A1A6
Copy CRC DCA5A1A6
Copy OK

Track 9
Filename C:\Uploads\09 – Shed Some Light.wav

Peak level 93.3 %
Track quality 100.0 %
Test CRC 0E9213D0
Copy CRC 0E9213D0
Copy OK

Track 10
Filename C:\Uploads\10 – Begin Again.wav

Peak level 96.6 %
Track quality 100.0 %
Test CRC 5A24A06F
Copy CRC 5A24A06F
Copy OK

Track 11
Filename C:\Uploads\11 – Atmosphere.wav

Pre-gap length 0:00:01.16

Peak level 96.6 %
Track quality 100.0 %
Test CRC A23A56D1
Copy CRC A23A56D1
Copy OK

Track 12
Filename C:\Uploads\12 – Fake.wav

Peak level 96.6 %
Track quality 99.9 %
Test CRC A6AA946A
Copy CRC A6AA946A
Copy OK

Track 13
Filename C:\Uploads\13 – Some Day.wav

Pre-gap length 0:00:02.76

Peak level 96.6 %
Track quality 100.0 %
Test CRC 9BA9369B
Copy CRC 9BA9369B
Copy OK

No errors occured

End of status report

REM GENRE “Hard Rock”
REM DATE 2005
REM DISCID AE0B770D
REM COMMENT “ExactAudioCopy v0.95b4”
PERFORMER “Shinedown”
TITLE “Us And Them”
FILE “01 – The Dream.wav” WAVE
TRACK 01 AUDIO
TITLE “The Dream”
PERFORMER “Shinedown”
INDEX 01 00:00:00
FILE “02 – Heroes.wav” WAVE
TRACK 02 AUDIO
TITLE “Heroes”
PERFORMER “Shinedown”
INDEX 01 00:00:00
FILE “03 – Save Me.wav” WAVE
TRACK 03 AUDIO
TITLE “Save Me”
PERFORMER “Shinedown”
INDEX 01 00:00:00
FILE “04 – I Dare You.wav” WAVE
TRACK 04 AUDIO
TITLE “I Dare You”
PERFORMER “Shinedown”
INDEX 01 00:00:00
FILE “05 – Yer Majesty.wav” WAVE
TRACK 05 AUDIO
TITLE “Yer Majesty”
PERFORMER “Shinedown”
INDEX 01 00:00:00
TRACK 06 AUDIO
TITLE “Beyond The Sun”
PERFORMER “Shinedown”
INDEX 00 03:00:09
FILE “06 – Beyond The Sun.wav” WAVE
INDEX 01 00:00:00
FILE “07 – Trade Yourself In.wav” WAVE
TRACK 07 AUDIO
TITLE “Trade Yourself In”
PERFORMER “Shinedown”
INDEX 01 00:00:00
FILE “08 – Lady So Divine.wav” WAVE
TRACK 08 AUDIO
TITLE “Lady So Divine”
PERFORMER “Shinedown”
INDEX 01 00:00:00
FILE “09 – Shed Some Light.wav” WAVE
TRACK 09 AUDIO
TITLE “Shed Some Light”
PERFORMER “Shinedown”
INDEX 01 00:00:00
FILE “10 – Begin Again.wav” WAVE
TRACK 10 AUDIO
TITLE “Begin Again”
PERFORMER “Shinedown”
INDEX 01 00:00:00
TRACK 11 AUDIO
TITLE “Atmosphere”
PERFORMER “Shinedown”
INDEX 00 03:48:44
FILE “11 – Atmosphere.wav” WAVE
INDEX 01 00:00:00
FILE “12 – Fake.wav” WAVE
TRACK 12 AUDIO
TITLE “Fake”
PERFORMER “Shinedown”
INDEX 01 00:00:00
TRACK 13 AUDIO
TITLE “Some Day”
PERFORMER “Shinedown”
INDEX 00 04:01:23
FILE “13 – Some Day.wav” WAVE
INDEX 01 00:00:00


Leave a Reply

Your email address will not be published. Required fields are marked *

Enter the text from the image below
 

This site uses Akismet to reduce spam. Learn how your comment data is processed.