Shinedown – Us and Them (Deluxe Edition)




Artist: Shinedown
Year: 2005
Genre: Metal
Notes: Discogs
Add. Notes: Deluxe Edition
Cover incl.: No
Encoder: FLAC
Bitrate: ~1000 kBit/s (44.1 kHz/16 Bit/s)
Log & Cue incl.: Yes
Size: 417,8 MB
Password: “slam” (without ” “)


All Downloads/Hosters are compatible

Download 1
KatFile.com
Turbobit.net
FileFactory.com
Rapidgator.net
Download 2
KatFile.com
Turbobit.net
FileFactory.com
Rapidgator.net

Tracklist:

1 The Dream 0:59
2 Heroes 3:24
3 Save Me 3:33
4 I Dare You 3:54
5 Yer Majesty 3:01
6 Beyond The Sun 4:13
7 Trade Yourself In 3:32
8 Lady So Divine 7:09
9 Shed Some Light 3:41
10 Begin Again 3:49
11 Atmosphere 4:16
12 Fake 4:04
13 Some Day 3:14
14 Save Me (Acoustic) 3:24
15 I Dare You (Acoustic) 3:46
16 Some Day (Acoustic) 3:16

EAC-Log, CUE-Sheed & NFO:

Click to open spoiler
EAC extraction logfile from 5. November 2006, 13:16 for CD
Shinedown / Us And Them (Limited Edition)

Used drive : JLMS XJ-HD166S Adapter: 1 ID: 1
Read mode : Secure with NO C2, accurate stream, disable cache
Read offset correction : 12
Overread into Lead-In and Lead-Out : No

Used output format : C:\Program Files\FLAC\flac.exe (User Defined Encoder)
128 kBit/s
Additional command line options : -V -8 -T “artist=%a” -T “title=%t” -T “album=%g” -T “date=%y” -T “tracknumber=%n” -T “genre=%m” %s

Other options :
Fill up missing offset samples with silence : Yes
Delete leading and trailing silent blocks : No
Native Win32 interface for Win NT & 2000

Track 1
Filename E:\Torrent Downloads (In Progress)\Shinedown – 2005-10-04 — Us And Them (Limited Edition)\01 – The Dream.wav

Pre-gap length 0:00:02.00

Peak level 53.9 %
Track quality 100.0 %
Test CRC 038AE118
Copy CRC 038AE118
Copy OK

Track 2
Filename E:\Torrent Downloads (In Progress)\Shinedown – 2005-10-04 — Us And Them (Limited Edition)\02 – Heroes.wav

Peak level 93.1 %
Track quality 100.0 %
Test CRC EBADA58B
Copy CRC EBADA58B
Copy OK

Track 3
Filename E:\Torrent Downloads (In Progress)\Shinedown – 2005-10-04 — Us And Them (Limited Edition)\03 – Save Me.wav

Peak level 96.6 %
Track quality 100.0 %
Test CRC 0A77C098
Copy CRC 0A77C098
Copy OK

Track 4
Filename E:\Torrent Downloads (In Progress)\Shinedown – 2005-10-04 — Us And Them (Limited Edition)\04 – I Dare You.wav

Peak level 96.6 %
Track quality 100.0 %
Test CRC 6F33FC53
Copy CRC 6F33FC53
Copy OK

Track 5
Filename E:\Torrent Downloads (In Progress)\Shinedown – 2005-10-04 — Us And Them (Limited Edition)\05 – Yer Majesty.wav

Peak level 96.6 %
Track quality 100.0 %
Test CRC DB34010C
Copy CRC DB34010C
Copy OK

Track 6
Filename E:\Torrent Downloads (In Progress)\Shinedown – 2005-10-04 — Us And Them (Limited Edition)\06 – Beyond The Sun.wav

Pre-gap length 0:00:01.64

Peak level 96.6 %
Track quality 100.0 %
Test CRC 5E204C92
Copy CRC 5E204C92
Copy OK

Track 7
Filename E:\Torrent Downloads (In Progress)\Shinedown – 2005-10-04 — Us And Them (Limited Edition)\07 – Trade Yourself In.wav

Peak level 96.6 %
Track quality 100.0 %
Test CRC D63264F5
Copy CRC D63264F5
Copy OK

Track 8
Filename E:\Torrent Downloads (In Progress)\Shinedown – 2005-10-04 — Us And Them (Limited Edition)\08 – Lady So Divine.wav

Peak level 96.6 %
Track quality 100.0 %
Test CRC 612A0F49
Copy CRC 612A0F49
Copy OK

Track 9
Filename E:\Torrent Downloads (In Progress)\Shinedown – 2005-10-04 — Us And Them (Limited Edition)\09 – Shed Some Light.wav

Peak level 93.3 %
Track quality 100.0 %
Test CRC 4A0ED710
Copy CRC 4A0ED710
Copy OK

Track 10
Filename E:\Torrent Downloads (In Progress)\Shinedown – 2005-10-04 — Us And Them (Limited Edition)\10 – Begin Again.wav

Peak level 96.6 %
Track quality 100.0 %
Test CRC 1BEE8166
Copy CRC 1BEE8166
Copy OK

Track 11
Filename E:\Torrent Downloads (In Progress)\Shinedown – 2005-10-04 — Us And Them (Limited Edition)\11 – Atmosphere.wav

Pre-gap length 0:00:01.16

Peak level 96.6 %
Track quality 100.0 %
Test CRC 8465A7BF
Copy CRC 8465A7BF
Copy OK

Track 12
Filename E:\Torrent Downloads (In Progress)\Shinedown – 2005-10-04 — Us And Them (Limited Edition)\12 – Fake.wav

Peak level 96.6 %
Track quality 99.9 %
Test CRC 95F841E8
Copy CRC 95F841E8
Copy OK

Track 13
Filename E:\Torrent Downloads (In Progress)\Shinedown – 2005-10-04 — Us And Them (Limited Edition)\13 – Some Day.wav

Pre-gap length 0:00:02.76

Peak level 96.6 %
Track quality 99.9 %
Test CRC B6AEAB96
Copy CRC B6AEAB96
Copy OK

Track 14
Filename E:\Torrent Downloads (In Progress)\Shinedown – 2005-10-04 — Us And Them (Limited Edition)\14 – Save Me (Acoustic).wav

Pre-gap length 0:00:04.00

Peak level 86.1 %
Track quality 99.9 %
Test CRC 33AA2B45
Copy CRC 33AA2B45
Copy OK

Track 15
Filename E:\Torrent Downloads (In Progress)\Shinedown – 2005-10-04 — Us And Them (Limited Edition)\15 – I Dare You (Acoustic).wav

Pre-gap length 0:00:01.46

Peak level 86.1 %
Track quality 99.9 %
Test CRC FCCD9276
Copy CRC FCCD9276
Copy OK

Track 16
Filename E:\Torrent Downloads (In Progress)\Shinedown – 2005-10-04 — Us And Them (Limited Edition)\16 – Some Day (Acoustic).wav

Pre-gap length 0:00:01.46

Peak level 86.1 %
Track quality 100.0 %
Test CRC 9E3CF85D
Copy CRC 9E3CF85D
Copy OK

No errors occured

End of status report

REM GENRE Rock
REM DATE 2005
REM DISCID D80DEC10
REM COMMENT “ExactAudioCopy v0.95b4”
PERFORMER “Shinedown”
TITLE “Us and Them [Limited Edition]”
FILE “01 – The Dream.wav” WAVE
TRACK 01 AUDIO
TITLE “The Dream”
PERFORMER “Shinedown”
INDEX 01 00:00:00
FILE “02 – Heroes.wav” WAVE
TRACK 02 AUDIO
TITLE “Heroes”
PERFORMER “Shinedown”
INDEX 01 00:00:00
FILE “03 – Save Me.wav” WAVE
TRACK 03 AUDIO
TITLE “Save Me”
PERFORMER “Shinedown”
INDEX 01 00:00:00
FILE “04 – I Dare You.wav” WAVE
TRACK 04 AUDIO
TITLE “I Dare You”
PERFORMER “Shinedown”
INDEX 01 00:00:00
FILE “05 – Yer Majesty.wav” WAVE
TRACK 05 AUDIO
TITLE “Yer Majesty”
PERFORMER “Shinedown”
INDEX 01 00:00:00
TRACK 06 AUDIO
TITLE “Beyond The Sun”
PERFORMER “Shinedown”
INDEX 00 03:00:09
FILE “06 – Beyond The Sun.wav” WAVE
INDEX 01 00:00:00
FILE “07 – Trade Yourself In.wav” WAVE
TRACK 07 AUDIO
TITLE “Trade Yourself In”
PERFORMER “Shinedown”
INDEX 01 00:00:00
FILE “08 – Lady So Divine.wav” WAVE
TRACK 08 AUDIO
TITLE “Lady So Divine”
PERFORMER “Shinedown”
INDEX 01 00:00:00
FILE “09 – Shed Some Light.wav” WAVE
TRACK 09 AUDIO
TITLE “Shed Some Light”
PERFORMER “Shinedown”
INDEX 01 00:00:00
FILE “10 – Begin Again.wav” WAVE
TRACK 10 AUDIO
TITLE “Begin Again”
PERFORMER “Shinedown”
INDEX 01 00:00:00
TRACK 11 AUDIO
TITLE “Atmosphere”
PERFORMER “Shinedown”
INDEX 00 03:48:44
FILE “11 – Atmosphere.wav” WAVE
INDEX 01 00:00:00
FILE “12 – Fake.wav” WAVE
TRACK 12 AUDIO
TITLE “Fake”
PERFORMER “Shinedown”
INDEX 01 00:00:00
TRACK 13 AUDIO
TITLE “Some Day”
PERFORMER “Shinedown”
INDEX 00 04:01:23
FILE “13 – Some Day.wav” WAVE
INDEX 01 00:00:00
TRACK 14 AUDIO
TITLE “Save Me (Acoustic)”
PERFORMER “Shinedown”
INDEX 00 03:14:15
FILE “14 – Save Me (Acoustic).wav” WAVE
INDEX 01 00:00:00
TRACK 15 AUDIO
TITLE “I Dare You (Acoustic)”
PERFORMER “Shinedown”
INDEX 00 03:22:06
FILE “15 – I Dare You (Acoustic).wav” WAVE
INDEX 01 00:00:00
TRACK 16 AUDIO
TITLE “Some Day (Acoustic)”
PERFORMER “Shinedown”
INDEX 00 03:43:73
FILE “16 – Some Day (Acoustic).wav” WAVE
INDEX 01 00:00:00


Leave a Reply

Your email address will not be published. Required fields are marked *

Enter the text from the image below
 

This site uses Akismet to reduce spam. Learn how your comment data is processed.