Shinedown – The Sound Of Madness (Limited Edition)




Artist: Shinedown
Year: 2008
Genre: Rock
Notes: Discogs
Add. Notes: Limited Edition
Cover incl.: Yes
Encoder: APE
Bitrate: ~1100 kBit/s (44.1 kHz/16 Bit/s)
Log & Cue incl.: Yes
Size: 401 MB
Password: “slam” (without ” “)


All Downloads/Hosters are compatible

Download 1
KatFile.com
Turbobit.net
FileFactory.com
Rapidgator.net
Download 2
KatFile.com
Turbobit.net
FileFactory.com
Rapidgator.net

Tracklist:

1 - Devour - 3:49
2 - Sound Of Madness - 3:53
3 - Second Chance - 3:40
4 - Cry For Help - 3:20
5 - The Crow And The Butterfly - 
4:13
6 - If You Only Knew - 3:46
7 - Sin With A Grin - 4:00
8 - What A Shame - 4:18
9 - Cyanide Sweet Tooth Suicide - 
3:11
10 - Breaking Inside - 3:51
11 - Call Me - 3:42

Bonus Tracks
12 - I Own You 
13 - The Energy
14 - Son Of Sam

EAC-Log, CUE-Sheed & NFO:

Click to open spoiler
EAC extraction logfile from 7. July 2008, 18:17 for CD
Shinedown / The Sound Of Madness [Limited Fan Club Edition]

Used drive : ASUS DRW-1608P3S Adapter: 1 ID: 1
Read mode : Secure with NO C2, accurate stream, disable cache
Read offset correction : 48
Overread into Lead-In and Lead-Out : No

Used output format : Internal WAV Routines
44.100 Hz; 16 Bit; Stereo

Other options :
Fill up missing offset samples with silence : Yes
Delete leading and trailing silent blocks : No
Native Win32 interface for Win NT & 2000

Range status and errors
Selected range
Filename Z:\My Music\Shinedown\Shinedown – The Sound Of Madness [Limited Fan Club Edition].wav

Peak level 100.0 %
Range quality 100.0 %
CRC 8AEB1B7B
Copy OK

No errors occured

End of status report

REM GENRE “Post Grunge”
REM DATE 2008
REM DISCID CA0C4D0E
REM COMMENT “ExactAudioCopy v0.95b4”
PERFORMER “Shinedown”
TITLE “The Sound Of Madness [Limited Fan Club Edition]”
FILE “Shinedown – The Sound Of Madness [Limited Fan Club Edition].ape” WAVE
TRACK 01 AUDIO
TITLE “Devour”
PERFORMER “Shinedown”
INDEX 01 00:00:00
TRACK 02 AUDIO
TITLE “Sound Of Madness”
PERFORMER “Shinedown”
INDEX 01 03:49:73
TRACK 03 AUDIO
TITLE “Second Chance”
PERFORMER “Shinedown”
INDEX 01 07:43:72
TRACK 04 AUDIO
TITLE “Cry For Help”
PERFORMER “Shinedown”
INDEX 01 11:24:27
TRACK 05 AUDIO
TITLE “The Crow And The Butterfly”
PERFORMER “Shinedown”
INDEX 01 14:44:32
TRACK 06 AUDIO
TITLE “If You Only Knew”
PERFORMER “Shinedown”
INDEX 01 18:58:02
TRACK 07 AUDIO
TITLE “Sin With A Grin”
PERFORMER “Shinedown”
INDEX 01 22:44:50
TRACK 08 AUDIO
TITLE “What A Shame”
PERFORMER “Shinedown”
INDEX 01 26:45:27
TRACK 09 AUDIO
TITLE “Cyanide Sweet Tooth Suicide”
PERFORMER “Shinedown”
INDEX 01 31:04:25
TRACK 10 AUDIO
TITLE “Breaking Inside”
PERFORMER “Shinedown”
INDEX 01 34:15:30
TRACK 11 AUDIO
TITLE “Call Me”
PERFORMER “Shinedown”
INDEX 00 38:04:62
INDEX 01 38:06:49
TRACK 12 AUDIO
TITLE “I Own You [Bonus Track]”
PERFORMER “Shinedown”
INDEX 00 41:48:64
INDEX 01 41:49:69
TRACK 13 AUDIO
TITLE “The Energy [Bonus Track]”
PERFORMER “Shinedown”
INDEX 01 45:27:07
TRACK 14 AUDIO
TITLE “Son Of Sam [Bonus Track]”
PERFORMER “Shinedown”
INDEX 01 48:51:67


Leave a Reply

Your email address will not be published. Required fields are marked *

Enter the text from the image below
 

This site uses Akismet to reduce spam. Learn how your comment data is processed.