Shinedown – The Sound Of Madness (Deluxe Edition)




[Total: 0    Average: 0/5]

Artist: Shinedown
Year: 2008/2010
Genre: Rock
Notes: Discogs
Add. Notes: Deluxe Edition
Cover incl.: Yes
Encoder: FLAC
Bitrate: ~1100 kBit/s (44.1 kHz/16 Bit/s)
Log & Cue incl.: Yes
Size: 587,36 MB
Password: “slam” (without ” “)


All Downloads/Hosters are compatible

Download 1
Share-online.biz
KatFile.com
Rapidgator.net
Turbobit.net
Download 2
Share-online.biz
KatFile.com
Rapidgator.net
Turbobit.net

Tracklist:

1 - Devour - 3:49
2 - Sound Of Madness - 3:53
3 - Second Chance - 3:40
4 - Cry For Help - 3:20
5 - The Crow And The Butterfly - 4:13
6 - If You Only Knew - 3:46
7 - Sin With A Grin - 4:00
8 - What A Shame - 4:18
9 - Cyanide Sweet Tooth Suicide - 3:11
10 - Breaking Inside - 3:51
11 - Call Me - 3:42
12 - The Energy - 3:26
13 - Son Of Sam - 3:39
14 - I Own You - 3:38
15 - Junkies Of Fame - 3:28
16 - Second Chance (Acoustic) - 3:43
17 - The Crow & The Butterfly (Pull Remix) - 5:27
18 - Her Name Is Alice - 3:39
19 - Diamond Eyes (Boom-Lay Boom-Lay Boom) - 5:38
20 - Breaking Inside (Feat. Lzzy Hale Of Halestorm) - 
3:47

EAC-Log, CUE-Sheed & NFO:

Click to open spoiler
Exact Audio Copy V0.99 prebeta 5 from 4. May 2009

EAC extraction logfile from 22. November 2010, 19:39

Shinedown / The Sound Of Madness

Used drive : HL-DT-STDVD+-RW GH30N Adapter: 0 ID: 1

Read mode : Secure
Utilize accurate stream : Yes
Defeat audio cache : Yes
Make use of C2 pointers : No

Read offset correction : 102
Overread into Lead-In and Lead-Out : Yes
Fill up missing offset samples with silence : Yes
Delete leading and trailing silent blocks : No
Null samples used in CRC calculations : Yes
Used interface : Native Win32 interface for Win NT & 2000
Gap handling : Appended to previous track

Used output format : User Defined Encoder
Selected bitrate : 320 kBit/s
Quality : High
Add ID3 tag : No
Command line compressor : C:\Program Files (x86)\Exact Audio Copy\Flac\flac.exe
Additional command line options : -V -8 -T “artist=%a” -T “title=%t” -T “album=%g” -T “date=%y” -T “tracknumber=%n” -T “genre=%m” %s

TOC of the extracted CD

Track | Start | Length | Start sector | End sector
———————————————————
1 | 0:00.00 | 3:49.73 | 0 | 17247
2 | 3:49.73 | 3:53.74 | 17248 | 34796
3 | 7:43.72 | 3:40.30 | 34797 | 51326
4 | 11:24.27 | 3:20.05 | 51327 | 66331
5 | 14:44.32 | 4:13.45 | 66332 | 85351
6 | 18:58.02 | 3:46.48 | 85352 | 102349
7 | 22:44.50 | 4:00.51 | 102350 | 120400
8 | 26:45.26 | 4:18.74 | 120401 | 139824
9 | 31:04.25 | 3:11.05 | 139825 | 154154
10 | 34:15.30 | 3:51.19 | 154155 | 171498
11 | 38:06.49 | 3:43.56 | 171499 | 188279
12 | 41:50.30 | 3:26.21 | 188280 | 203750
13 | 45:16.51 | 3:38.60 | 203751 | 220160
14 | 48:55.36 | 3:37.67 | 220161 | 236502
15 | 52:33.28 | 3:27.46 | 236503 | 252073
16 | 56:00.74 | 3:42.50 | 252074 | 268773
17 | 59:43.49 | 5:26.53 | 268774 | 293276
18 | 65:10.27 | 3:39.19 | 293277 | 309720
19 | 68:49.46 | 5:37.71 | 309721 | 335066
20 | 74:27.42 | 3:47.34 | 335067 | 352125

Track 1

Filename C:\EACrips\Shinedown – The Sound Of Madness (2010) – FLAC\01 – Devour.wav

Pre-gap length 0:00:02.00

Peak level 100.0 %
Track quality 100.0 %
Test CRC 8FF0CA48
Copy CRC 8FF0CA48
Track not present in AccurateRip database
Copy OK

Track 2

Filename C:\EACrips\Shinedown – The Sound Of Madness (2010) – FLAC\02 – Sound Of Madness.wav

Peak level 100.0 %
Track quality 100.0 %
Test CRC 666202CF
Copy CRC 666202CF
Track not present in AccurateRip database
Copy OK

Track 3

Filename C:\EACrips\Shinedown – The Sound Of Madness (2010) – FLAC\03 – Second Chance.wav

Peak level 100.0 %
Track quality 100.0 %
Test CRC EB27C646
Copy CRC EB27C646
Track not present in AccurateRip database
Copy OK

Track 4

Filename C:\EACrips\Shinedown – The Sound Of Madness (2010) – FLAC\04 – Cry For Help.wav

Peak level 100.0 %
Track quality 100.0 %
Test CRC 9537C96E
Copy CRC 9537C96E
Track not present in AccurateRip database
Copy OK

Track 5

Filename C:\EACrips\Shinedown – The Sound Of Madness (2010) – FLAC\05 – The Crow & The Butterfly.wav

Peak level 100.0 %
Track quality 100.0 %
Test CRC 6DB8AFD2
Copy CRC 6DB8AFD2
Track not present in AccurateRip database
Copy OK

Track 6

Filename C:\EACrips\Shinedown – The Sound Of Madness (2010) – FLAC\06 – If You Only Knew.wav

Peak level 100.0 %
Track quality 100.0 %
Test CRC 05FEE10C
Copy CRC 05FEE10C
Track not present in AccurateRip database
Copy OK

Track 7

Filename C:\EACrips\Shinedown – The Sound Of Madness (2010) – FLAC\07 – Sin With A Grin.wav

Peak level 100.0 %
Track quality 100.0 %
Test CRC 85F6956F
Copy CRC 85F6956F
Track not present in AccurateRip database
Copy OK

Track 8

Filename C:\EACrips\Shinedown – The Sound Of Madness (2010) – FLAC\08 – What A Shame.wav

Peak level 100.0 %
Track quality 99.9 %
Test CRC 5193A1CF
Copy CRC 5193A1CF
Track not present in AccurateRip database
Copy OK

Track 9

Filename C:\EACrips\Shinedown – The Sound Of Madness (2010) – FLAC\09 – Cyanide Sweet Tooth Suicide.wav

Peak level 100.0 %
Track quality 100.0 %
Test CRC B28E18CA
Copy CRC B28E18CA
Track not present in AccurateRip database
Copy OK

Track 10

Filename C:\EACrips\Shinedown – The Sound Of Madness (2010) – FLAC\10 – Breaking Inside.wav

Peak level 100.0 %
Track quality 100.0 %
Test CRC CCB533BB
Copy CRC CCB533BB
Track not present in AccurateRip database
Copy OK

Track 11

Filename C:\EACrips\Shinedown – The Sound Of Madness (2010) – FLAC\11 – Call Me.wav

Pre-gap length 0:00:01.82

Peak level 100.0 %
Track quality 100.0 %
Test CRC BE6ACF93
Copy CRC BE6ACF93
Track not present in AccurateRip database
Copy OK

Track 12

Filename C:\EACrips\Shinedown – The Sound Of Madness (2010) – FLAC\12 – The Energy.wav

Pre-gap length 0:00:02.14

Peak level 100.0 %
Track quality 100.0 %
Test CRC 655F9563
Copy CRC 655F9563
Track not present in AccurateRip database
Copy OK

Track 13

Filename C:\EACrips\Shinedown – The Sound Of Madness (2010) – FLAC\13 – Son Of Sam.wav

Pre-gap length 0:00:01.88

Peak level 100.0 %
Track quality 99.9 %
Test CRC ED27A108
Copy CRC ED27A108
Track not present in AccurateRip database
Copy OK

Track 14

Filename C:\EACrips\Shinedown – The Sound Of Madness (2010) – FLAC\14 – I Own You.wav

Pre-gap length 0:00:02.13

Peak level 100.0 %
Track quality 100.0 %
Test CRC 6D7366CE
Copy CRC 6D7366CE
Track not present in AccurateRip database
Copy OK

Track 15

Filename C:\EACrips\Shinedown – The Sound Of Madness (2010) – FLAC\15 – Junkies For Fame.wav

Pre-gap length 0:00:01.80

Peak level 100.0 %
Track quality 100.0 %
Test CRC 66DAD1E7
Copy CRC 66DAD1E7
Track not present in AccurateRip database
Copy OK

Track 16

Filename C:\EACrips\Shinedown – The Sound Of Madness (2010) – FLAC\16 – Second Chance (Acoustic).wav

Pre-gap length 0:00:01.96

Peak level 100.0 %
Track quality 100.0 %
Test CRC 30E1E38C
Copy CRC 30E1E38C
Track not present in AccurateRip database
Copy OK

Track 17

Filename C:\EACrips\Shinedown – The Sound Of Madness (2010) – FLAC\17 – The Crow & The Butterfly (Pull Remix).wav

Pre-gap length 0:00:01.98

Peak level 97.7 %
Track quality 100.0 %
Test CRC 615DF7F9
Copy CRC 615DF7F9
Track not present in AccurateRip database
Copy OK

Track 18

Filename C:\EACrips\Shinedown – The Sound Of Madness (2010) – FLAC\18 – Her Name Is Alice.wav

Pre-gap length 0:00:01.77

Peak level 98.7 %
Track quality 100.0 %
Test CRC 8E35533E
Copy CRC 8E35533E
Track not present in AccurateRip database
Copy OK

Track 19

Filename C:\EACrips\Shinedown – The Sound Of Madness (2010) – FLAC\19 – Diamond Eyes (Boom-Lay Boom-Lay Boom).wav

Pre-gap length 0:00:00.52

Peak level 100.0 %
Track quality 100.0 %
Test CRC D04CE9FE
Copy CRC D04CE9FE
Track not present in AccurateRip database
Copy OK

Track 20

Filename C:\EACrips\Shinedown – The Sound Of Madness (2010) – FLAC\20 – Breaking Inside (Feat. Lzzy Hale Of Halestorm).wav

Pre-gap length 0:00:01.97

Peak level 100.0 %
Track quality 99.9 %
Test CRC D73DD540
Copy CRC D73DD540
Track not present in AccurateRip database
Copy OK

None of the tracks are present in the AccurateRip database

No errors occurred

End of status report

REM GENRE Rock
REM DATE 2010
REM DISCID 2E125714
REM COMMENT “ExactAudioCopy v0.99pb5”
PERFORMER “Shinedown”
TITLE “The Sound Of Madness”
FILE “01 – Devour.wav” WAVE
TRACK 01 AUDIO
TITLE “Devour”
PERFORMER “Shinedown”
INDEX 01 00:00:00
FILE “02 – Sound Of Madness.wav” WAVE
TRACK 02 AUDIO
TITLE “Sound Of Madness”
PERFORMER “Shinedown”
INDEX 01 00:00:00
FILE “03 – Second Chance.wav” WAVE
TRACK 03 AUDIO
TITLE “Second Chance”
PERFORMER “Shinedown”
INDEX 01 00:00:00
FILE “04 – Cry For Help.wav” WAVE
TRACK 04 AUDIO
TITLE “Cry For Help”
PERFORMER “Shinedown”
INDEX 01 00:00:00
FILE “05 – The Crow & The Butterfly.wav” WAVE
TRACK 05 AUDIO
TITLE “The Crow & The Butterfly”
PERFORMER “Shinedown”
INDEX 01 00:00:00
FILE “06 – If You Only Knew.wav” WAVE
TRACK 06 AUDIO
TITLE “If You Only Knew”
PERFORMER “Shinedown”
INDEX 01 00:00:00
FILE “07 – Sin With A Grin.wav” WAVE
TRACK 07 AUDIO
TITLE “Sin With A Grin”
PERFORMER “Shinedown”
INDEX 01 00:00:00
FILE “08 – What A Shame.wav” WAVE
TRACK 08 AUDIO
TITLE “What A Shame”
PERFORMER “Shinedown”
INDEX 01 00:00:00
FILE “09 – Cyanide Sweet Tooth Suicide.wav” WAVE
TRACK 09 AUDIO
TITLE “Cyanide Sweet Tooth Suicide”
PERFORMER “Shinedown”
INDEX 01 00:00:00
FILE “10 – Breaking Inside.wav” WAVE
TRACK 10 AUDIO
TITLE “Breaking Inside”
PERFORMER “Shinedown”
INDEX 01 00:00:00
TRACK 11 AUDIO
TITLE “Call Me”
PERFORMER “Shinedown”
INDEX 00 03:49:32
FILE “11 – Call Me.wav” WAVE
INDEX 01 00:00:00
TRACK 12 AUDIO
TITLE “The Energy”
PERFORMER “Shinedown”
INDEX 00 03:41:45
FILE “12 – The Energy.wav” WAVE
INDEX 01 00:00:00
TRACK 13 AUDIO
TITLE “Son Of Sam”
PERFORMER “Shinedown”
INDEX 00 03:24:30
FILE “13 – Son Of Sam.wav” WAVE
INDEX 01 00:00:00
TRACK 14 AUDIO
TITLE “I Own You”
PERFORMER “Shinedown”
INDEX 00 03:36:50
FILE “14 – I Own You.wav” WAVE
INDEX 01 00:00:00
TRACK 15 AUDIO
TITLE “Junkies For Fame”
PERFORMER “Shinedown”
INDEX 00 03:36:07
FILE “15 – Junkies For Fame.wav” WAVE
INDEX 01 00:00:00
TRACK 16 AUDIO
TITLE “Second Chance (Acoustic)”
PERFORMER “Shinedown”
INDEX 00 03:25:49
FILE “16 – Second Chance (Acoustic).wav” WAVE
INDEX 01 00:00:00
TRACK 17 AUDIO
TITLE “The Crow & The Butterfly (Pull Remix)”
PERFORMER “Shinedown”
INDEX 00 03:40:51
FILE “17 – The Crow & The Butterfly (Pull Remix).wav” WAVE
INDEX 01 00:00:00
TRACK 18 AUDIO
TITLE “Her Name Is Alice”
PERFORMER “Shinedown”
INDEX 00 05:24:70
FILE “18 – Her Name Is Alice.wav” WAVE
INDEX 01 00:00:00
TRACK 19 AUDIO
TITLE “Diamond Eyes (Boom-Lay Boom-Lay Boom)”
PERFORMER “Shinedown”
INDEX 00 03:38:55
FILE “19 – Diamond Eyes (Boom-Lay Boom-Lay Boom).wav” WAVE
INDEX 01 00:00:00
TRACK 20 AUDIO
TITLE “Breaking Inside (Feat. Lzzy Hale Of Halestorm)”
PERFORMER “Shinedown”
INDEX 00 05:35:73
FILE “20 – Breaking Inside (Feat. Lzzy Hale Of Halestorm).wav” WAVE
INDEX 01 00:00:00


Spread the Download

Leave a Reply

Your email address will not be published. Required fields are marked *

Enter the text from the image below
 

This site uses Akismet to reduce spam. Learn how your comment data is processed.