Shinedown – Somewhere In The Stratosphere




Artist: Shinedown
Year: 2011
Genre: Rock
Notes: Discogs
Add. Notes:
Cover incl.: Yes
Encoder: FLAC
Bitrate: ~900 kBit/s (44.1 kHz/16 Bit/s)
Log & Cue incl.: Yes
Size: 1135,5 MB
Password: “slam” (without ” “)


All Downloads/Hosters are compatible

Download 1
KatFile.com
Turbobit.net
Rapidgator.net
Download 2
KatFile.com
Turbobit.net
Rapidgator.net

Tracklist:

Madness Live from Washington State (Electric)
1-1. Intro (Scary Fairy)
1-2. Sound Of Madness
1-3. Devour
1-4. I Dare You
1-5. Cyanide Sweet Tooth Suicide
1-6. If You Only Knew
1-7. Diamond Eyes (Boom-Lay Boom-Lay Boom)
1-8. 45
1-9. Burning Bright
1-10. Heroes
1-11. The Crow & The Butterfly
1-12. Her Name Is Alice
1-13. Save Me
1-14. Left Out
1-15. Simple Man
1-16. Fly From The Inside
1-17. Second Chance
Anything and Everything Live from Kansas City (Acoustic)
2-1. Heroes
2-2. Save Me
2-3. If You Only Knew
2-4. Sound Of Madness
2-5. Shed Some Light
2-6. 45
2-7. I Dare You
2-8. Times Like These
2-9. The Crow & The Butterfly
2-10. Burning Bright
2-11. Devour
2-12. Call Me
2-13. Fly From The Inside
2-14. With A Little Help From My Friends (feat. Will Hoge)
2-15. Simple Ma
2-16. Second Chance

EAC-Log, CUE-Sheed & NFO:

Click to open spoiler
Exact Audio Copy V1.0 beta 1 from 15. November 2010

EAC extraction logfile from 3. May 2011, 12:49

Shinedown / Somewhere In The Stratosphere (CD1)

Used drive : Optiarc DVD RW AD-7241S Adapter: 1 ID: 0

Read mode : Secure
Utilize accurate stream : Yes
Defeat audio cache : Yes
Make use of C2 pointers : No

Read offset correction : 48
Overread into Lead-In and Lead-Out : No
Fill up missing offset samples with silence : Yes
Delete leading and trailing silent blocks : No
Null samples used in CRC calculations : Yes
Used interface : Native Win32 interface for Win NT & 2000
Gap handling : Appended to previous track

Used output format : User Defined Encoder
Selected bitrate : 1024 kBit/s
Quality : High
Add ID3 tag : No
Command line compressor : C:\Program Files\Exact Audio Copy\Flac\flac.exe
Additional command line options : -V -T “Artist=%a” -T “Title=%t” -T “Album=%g” -T “date=%y” -T “tracknumber=%n” -T “Genre=%m” -8 %s

TOC of the extracted CD

Track | Start | Length | Start sector | End sector
———————————————————
1 | 0:00.00 | 1:02.39 | 0 | 4688
2 | 1:02.39 | 3:56.00 | 4689 | 22388
3 | 4:58.39 | 3:56.16 | 22389 | 40104
4 | 8:54.55 | 3:43.39 | 40105 | 56868
5 | 12:38.19 | 3:37.39 | 56869 | 73182
6 | 16:15.58 | 3:48.08 | 73183 | 90290
7 | 20:03.66 | 5:44.13 | 90291 | 116103
8 | 25:48.04 | 5:17.68 | 116104 | 139946
9 | 31:05.72 | 3:53.03 | 139947 | 157424
10 | 34:59.00 | 3:30.54 | 157425 | 173228
11 | 38:29.54 | 4:16.45 | 173229 | 192473
12 | 42:46.24 | 5:05.21 | 192474 | 215369
13 | 47:51.45 | 3:31.17 | 215370 | 231211
14 | 51:22.62 | 5:54.54 | 231212 | 257815
15 | 57:17.41 | 7:35.36 | 257816 | 291976
16 | 64:53.02 | 5:39.31 | 291977 | 317432
17 | 70:32.33 | 5:38.26 | 317433 | 342808

Track 1

Filename C:\Users\\Desktop\Shinedown- Somewhere In The Stratosphere (2CD) (2011) [FLAC]\CD1 (Live From Washington State) (Electric)\01. Intro (Scary Fairy) (Live) (Electric).wav

Pre-gap length 0:00:02.00

Peak level 99.4 %
Extraction speed 1.7 X
Track quality 100.0 %
Test CRC A63D48DB
Copy CRC A63D48DB
Track not present in AccurateRip database
Copy OK

Track 2

Filename C:\Users\\Desktop\Shinedown- Somewhere In The Stratosphere (2CD) (2011) [FLAC]\CD1 (Live From Washington State) (Electric)\02. Sound Of Madness (Live) (Electric).wav

Peak level 100.0 %
Extraction speed 2.6 X
Track quality 100.0 %
Test CRC 96DB3B3C
Copy CRC 96DB3B3C
Track not present in AccurateRip database
Copy OK

Track 3

Filename C:\Users\\Desktop\Shinedown- Somewhere In The Stratosphere (2CD) (2011) [FLAC]\CD1 (Live From Washington State) (Electric)\03. Devour (Live) (Electric).wav

Peak level 100.0 %
Extraction speed 2.8 X
Track quality 100.0 %
Test CRC 5F0C5608
Copy CRC 5F0C5608
Track not present in AccurateRip database
Copy OK

Track 4

Filename C:\Users\\Desktop\Shinedown- Somewhere In The Stratosphere (2CD) (2011) [FLAC]\CD1 (Live From Washington State) (Electric)\04. I Dare You (Live) (Electric).wav

Peak level 100.0 %
Extraction speed 3.0 X
Track quality 100.0 %
Test CRC F692D949
Copy CRC F692D949
Track not present in AccurateRip database
Copy OK

Track 5

Filename C:\Users\\Desktop\Shinedown- Somewhere In The Stratosphere (2CD) (2011) [FLAC]\CD1 (Live From Washington State) (Electric)\05. Cyanide Sweet Tooth Suicide (Live) (Electric).wav

Peak level 100.0 %
Extraction speed 3.1 X
Track quality 100.0 %
Test CRC 47D4F025
Copy CRC 47D4F025
Track not present in AccurateRip database
Copy OK

Track 6

Filename C:\Users\\Desktop\Shinedown- Somewhere In The Stratosphere (2CD) (2011) [FLAC]\CD1 (Live From Washington State) (Electric)\06. If You Only Knew (Live) (Electric).wav

Peak level 100.0 %
Extraction speed 2.9 X
Track quality 99.9 %
Test CRC 169486F6
Copy CRC 169486F6
Track not present in AccurateRip database
Copy OK

Track 7

Filename C:\Users\\Desktop\Shinedown- Somewhere In The Stratosphere (2CD) (2011) [FLAC]\CD1 (Live From Washington State) (Electric)\07. Diamond Eyes (Boo-Lay Boom-Lay Boom) (Live) (Electric).wav

Peak level 100.0 %
Extraction speed 3.8 X
Track quality 100.0 %
Test CRC 04F02C59
Copy CRC 04F02C59
Track not present in AccurateRip database
Copy OK

Track 8

Filename C:\Users\\Desktop\Shinedown- Somewhere In The Stratosphere (2CD) (2011) [FLAC]\CD1 (Live From Washington State) (Electric)\08. 45 (Live) (Electric).wav

Peak level 100.0 %
Extraction speed 4.0 X
Track quality 100.0 %
Test CRC 4523CF74
Copy CRC 4523CF74
Track not present in AccurateRip database
Copy OK

Track 9

Filename C:\Users\\Desktop\Shinedown- Somewhere In The Stratosphere (2CD) (2011) [FLAC]\CD1 (Live From Washington State) (Electric)\09. Burning Bright (Live) (Electric).wav

Peak level 100.0 %
Extraction speed 4.0 X
Track quality 100.0 %
Test CRC B802EC5F
Copy CRC B802EC5F
Track not present in AccurateRip database
Copy OK

Track 10

Filename C:\Users\\Desktop\Shinedown- Somewhere In The Stratosphere (2CD) (2011) [FLAC]\CD1 (Live From Washington State) (Electric)\10. Heroes (Live) (Electric).wav

Peak level 100.0 %
Extraction speed 4.0 X
Track quality 100.0 %
Test CRC 82EBEE55
Copy CRC 82EBEE55
Track not present in AccurateRip database
Copy OK

Track 11

Filename C:\Users\\Desktop\Shinedown- Somewhere In The Stratosphere (2CD) (2011) [FLAC]\CD1 (Live From Washington State) (Electric)\11. The Crow & The Butterfly (Live) (Electric).wav

Peak level 100.0 %
Extraction speed 4.3 X
Track quality 100.0 %
Test CRC 71FECF63
Copy CRC 71FECF63
Track not present in AccurateRip database
Copy OK

Track 12

Filename C:\Users\\Desktop\Shinedown- Somewhere In The Stratosphere (2CD) (2011) [FLAC]\CD1 (Live From Washington State) (Electric)\12. Her Name Is Alice (Live) (Electric).wav

Peak level 100.0 %
Extraction speed 4.6 X
Track quality 100.0 %
Test CRC 2C65F63A
Copy CRC 2C65F63A
Track not present in AccurateRip database
Copy OK

Track 13

Filename C:\Users\\Desktop\Shinedown- Somewhere In The Stratosphere (2CD) (2011) [FLAC]\CD1 (Live From Washington State) (Electric)\13. Save Me (Live) (Electric).wav

Peak level 100.0 %
Extraction speed 4.5 X
Track quality 100.0 %
Test CRC 3002645A
Copy CRC 3002645A
Track not present in AccurateRip database
Copy OK

Track 14

Filename C:\Users\\Desktop\Shinedown- Somewhere In The Stratosphere (2CD) (2011) [FLAC]\CD1 (Live From Washington State) (Electric)\14. Left Out (Live) (Electric).wav

Peak level 100.0 %
Extraction speed 5.0 X
Track quality 100.0 %
Test CRC A3F2E427
Copy CRC A3F2E427
Track not present in AccurateRip database
Copy OK

Track 15

Filename C:\Users\\Desktop\Shinedown- Somewhere In The Stratosphere (2CD) (2011) [FLAC]\CD1 (Live From Washington State) (Electric)\15. Simple Man (Live) (Electric).wav

Peak level 100.0 %
Extraction speed 5.3 X
Track quality 100.0 %
Test CRC F304E147
Copy CRC F304E147
Track not present in AccurateRip database
Copy OK

Track 16

Filename C:\Users\\Desktop\Shinedown- Somewhere In The Stratosphere (2CD) (2011) [FLAC]\CD1 (Live From Washington State) (Electric)\16. Fly From The Inside (Live) (Electric).wav

Peak level 100.0 %
Extraction speed 5.4 X
Track quality 100.0 %
Test CRC D4FA1BD0
Copy CRC D4FA1BD0
Track not present in AccurateRip database
Copy OK

Track 17

Filename C:\Users\\Desktop\Shinedown- Somewhere In The Stratosphere (2CD) (2011) [FLAC]\CD1 (Live From Washington State) (Electric)\17. Second Chance (Live) (Electric).wav

Peak level 100.0 %
Extraction speed 5.6 X
Track quality 100.0 %
Test CRC E5806197
Copy CRC E5806197
Track not present in AccurateRip database
Copy OK

None of the tracks are present in the AccurateRip database

No errors occurred

End of status report

==== Log checksum DC956485D8A19A63D1243322312EFB12AE36853837FA90CFE064E8B15DEEB4D0 ====

Exact Audio Copy V1.0 beta 1 from 15. November 2010

EAC extraction logfile from 3. May 2011, 13:44

Shinedown / Somewhere In The Stratosphere (CD2)

Used drive : Optiarc DVD RW AD-7241S Adapter: 1 ID: 0

Read mode : Secure
Utilize accurate stream : Yes
Defeat audio cache : Yes
Make use of C2 pointers : No

Read offset correction : 48
Overread into Lead-In and Lead-Out : No
Fill up missing offset samples with silence : Yes
Delete leading and trailing silent blocks : No
Null samples used in CRC calculations : Yes
Used interface : Native Win32 interface for Win NT & 2000
Gap handling : Appended to previous track

Used output format : User Defined Encoder
Selected bitrate : 1024 kBit/s
Quality : High
Add ID3 tag : No
Command line compressor : C:\Program Files\Exact Audio Copy\Flac\flac.exe
Additional command line options : -V -T “Artist=%a” -T “Title=%t” -T “Album=%g” -T “date=%y” -T “tracknumber=%n” -T “Genre=%m” -8 %s

TOC of the extracted CD

Track | Start | Length | Start sector | End sector
———————————————————
1 | 0:00.00 | 8:08.74 | 0 | 36673
2 | 8:08.74 | 3:40.67 | 36674 | 53240
3 | 11:49.66 | 3:55.17 | 53241 | 70882
4 | 15:45.08 | 4:35.12 | 70883 | 91519
5 | 20:20.20 | 4:41.43 | 91520 | 112637
6 | 25:01.63 | 6:12.43 | 112638 | 140580
7 | 31:14.31 | 4:30.19 | 140581 | 160849
8 | 35:44.50 | 4:07.34 | 160850 | 179408
9 | 39:52.09 | 4:36.47 | 179409 | 200155
10 | 44:28.56 | 3:56.40 | 200156 | 217895
11 | 48:25.21 | 3:53.64 | 217896 | 235434
12 | 52:19.10 | 4:41.67 | 235435 | 256576
13 | 57:01.02 | 5:36.15 | 256577 | 281791
14 | 62:37.17 | 5:29.25 | 281792 | 306491
15 | 68:06.42 | 6:14.01 | 306492 | 334542
16 | 74:20.43 | 5:06.41 | 334543 | 357533

Track 1

Filename C:\Users\\Desktop\Shinedown- Somewhere In The Stratosphere (2CD) (2011) [FLAC]\CD2 (Live From Kansas City) (Acoustic)\01. Heroes (Live) (Acoustic).wav

Pre-gap length 0:00:02.00

Peak level 100.0 %
Extraction speed 2.9 X
Track quality 100.0 %
Test CRC A96F1493
Copy CRC A96F1493
Track not present in AccurateRip database
Copy OK

Track 2

Filename C:\Users\\Desktop\Shinedown- Somewhere In The Stratosphere (2CD) (2011) [FLAC]\CD2 (Live From Kansas City) (Acoustic)\02. Save Me (Live) (Acoustic).wav

Peak level 100.0 %
Extraction speed 3.0 X
Track quality 100.0 %
Test CRC 62E8593B
Copy CRC 62E8593B
Track not present in AccurateRip database
Copy OK

Track 3

Filename C:\Users\\Desktop\Shinedown- Somewhere In The Stratosphere (2CD) (2011) [FLAC]\CD2 (Live From Kansas City) (Acoustic)\03. If You Only Knew (Live) (Acoustic).wav

Peak level 100.0 %
Extraction speed 3.2 X
Track quality 100.0 %
Test CRC F1EF8A57
Copy CRC F1EF8A57
Track not present in AccurateRip database
Copy OK

Track 4

Filename C:\Users\\Desktop\Shinedown- Somewhere In The Stratosphere (2CD) (2011) [FLAC]\CD2 (Live From Kansas City) (Acoustic)\04. Sound Of Madness (Live) (Acoustic).wav

Peak level 100.0 %
Extraction speed 3.4 X
Track quality 100.0 %
Test CRC 8C0A6D99
Copy CRC 8C0A6D99
Track not present in AccurateRip database
Copy OK

Track 5

Filename C:\Users\\Desktop\Shinedown- Somewhere In The Stratosphere (2CD) (2011) [FLAC]\CD2 (Live From Kansas City) (Acoustic)\05. Shed Some Light (Live) (Acoustic).wav

Peak level 100.0 %
Extraction speed 3.3 X
Track quality 99.9 %
Test CRC 3C9451D0
Copy CRC 3C9451D0
Track not present in AccurateRip database
Copy OK

Track 6

Filename C:\Users\\Desktop\Shinedown- Somewhere In The Stratosphere (2CD) (2011) [FLAC]\CD2 (Live From Kansas City) (Acoustic)\06. 45 (Live) (Acoustic).wav

Peak level 100.0 %
Extraction speed 3.7 X
Track quality 99.9 %
Test CRC 4F7C8491
Copy CRC 4F7C8491
Track not present in AccurateRip database
Copy OK

Track 7

Filename C:\Users\\Desktop\Shinedown- Somewhere In The Stratosphere (2CD) (2011) [FLAC]\CD2 (Live From Kansas City) (Acoustic)\07. I Dare You (Live) (Acoustic).wav

Peak level 100.0 %
Extraction speed 4.1 X
Track quality 100.0 %
Test CRC 117CFD03
Copy CRC 117CFD03
Track not present in AccurateRip database
Copy OK

Track 8

Filename C:\Users\\Desktop\Shinedown- Somewhere In The Stratosphere (2CD) (2011) [FLAC]\CD2 (Live From Kansas City) (Acoustic)\08. Times Like These (Live) (Acoustic).wav

Peak level 100.0 %
Extraction speed 4.2 X
Track quality 100.0 %
Test CRC B5386AA0
Copy CRC B5386AA0
Track not present in AccurateRip database
Copy OK

Track 9

Filename C:\Users\\Desktop\Shinedown- Somewhere In The Stratosphere (2CD) (2011) [FLAC]\CD2 (Live From Kansas City) (Acoustic)\09. The Crow & The Butterfly (Live) (Acoustic).wav

Peak level 100.0 %
Extraction speed 3.9 X
Track quality 99.9 %
Test CRC C9617647
Copy CRC C9617647
Track not present in AccurateRip database
Copy OK

Track 10

Filename C:\Users\\Desktop\Shinedown- Somewhere In The Stratosphere (2CD) (2011) [FLAC]\CD2 (Live From Kansas City) (Acoustic)\10. Burning Bright (Live) (Acoustic).wav

Peak level 100.0 %
Extraction speed 4.5 X
Track quality 100.0 %
Test CRC B771C30E
Copy CRC B771C30E
Track not present in AccurateRip database
Copy OK

Track 11

Filename C:\Users\\Desktop\Shinedown- Somewhere In The Stratosphere (2CD) (2011) [FLAC]\CD2 (Live From Kansas City) (Acoustic)\11. Devour (Live) (Acoustic).wav

Peak level 100.0 %
Extraction speed 4.6 X
Track quality 100.0 %
Test CRC 4C718786
Copy CRC 4C718786
Track not present in AccurateRip database
Copy OK

Track 12

Filename C:\Users\\Desktop\Shinedown- Somewhere In The Stratosphere (2CD) (2011) [FLAC]\CD2 (Live From Kansas City) (Acoustic)\12. Call Me (Live) (Acoustic).wav

Peak level 96.9 %
Extraction speed 4.3 X
Track quality 99.9 %
Test CRC 16B4B4BC
Copy CRC 16B4B4BC
Track not present in AccurateRip database
Copy OK

Track 13

Filename C:\Users\\Desktop\Shinedown- Somewhere In The Stratosphere (2CD) (2011) [FLAC]\CD2 (Live From Kansas City) (Acoustic)\13. Fly From The Inside (Live) (Acoustic).wav

Peak level 100.0 %
Extraction speed 5.2 X
Track quality 100.0 %
Test CRC 166B7492
Copy CRC 166B7492
Track not present in AccurateRip database
Copy OK

Track 14

Filename C:\Users\\Desktop\Shinedown- Somewhere In The Stratosphere (2CD) (2011) [FLAC]\CD2 (Live From Kansas City) (Acoustic)\14. With A Little Help From My Friends (Featuring Will Hoge) (Live) (Acoustic).wav

Peak level 100.0 %
Extraction speed 5.3 X
Track quality 100.0 %
Test CRC E1F53F9C
Copy CRC E1F53F9C
Track not present in AccurateRip database
Copy OK

Track 15

Filename C:\Users\\Desktop\Shinedown- Somewhere In The Stratosphere (2CD) (2011) [FLAC]\CD2 (Live From Kansas City) (Acoustic)\15. Simple Man (Live) (Acoustic).wav

Peak level 100.0 %
Extraction speed 5.6 X
Track quality 100.0 %
Test CRC 33BD33B2
Copy CRC 33BD33B2
Track not present in AccurateRip database
Copy OK

Track 16

Filename C:\Users\\Desktop\Shinedown- Somewhere In The Stratosphere (2CD) (2011) [FLAC]\CD2 (Live From Kansas City) (Acoustic)\16. Second Chance (Live) (Acoustic).wav

Peak level 100.0 %
Extraction speed 5.6 X
Track quality 100.0 %
Test CRC 25666956
Copy CRC 25666956
Track not present in AccurateRip database
Copy OK

None of the tracks are present in the AccurateRip database

No errors occurred

End of status report

==== Log checksum 5502D990AB979F906D616D992EE0A06A6841C32A6DE2347BF51CA53FCAC2E6DF ====

REM GENRE Rock
REM DATE 2011
REM DISCID E611DA11
REM COMMENT “ExactAudioCopy v1.0b1”
CATALOG 0075678827112
PERFORMER “Shinedown”
TITLE “Somewhere In The Stratosphere (CD1)”
FILE “01. Intro (Scary Fairy) (Live) (Electric).wav” WAVE
TRACK 01 AUDIO
TITLE “Intro (Scary Fairy) (Live) (Electric)”
PERFORMER “Shinedown”
ISRC USAT21100513
FLAGS DCP
INDEX 01 00:00:00
FILE “02. Sound Of Madness (Live) (Electric).wav” WAVE
TRACK 02 AUDIO
TITLE “Sound Of Madness (Live) (Electric)”
PERFORMER “Shinedown”
ISRC USAT21100514
FLAGS DCP
INDEX 01 00:00:00
FILE “03. Devour (Live) (Electric).wav” WAVE
TRACK 03 AUDIO
TITLE “Devour (Live) (Electric)”
PERFORMER “Shinedown”
ISRC USAT21100517
FLAGS DCP
INDEX 01 00:00:00
FILE “04. I Dare You (Live) (Electric).wav” WAVE
TRACK 04 AUDIO
TITLE “I Dare You (Live) (Electric)”
PERFORMER “Shinedown”
ISRC USAT21100518
FLAGS DCP
INDEX 01 00:00:00
FILE “05. Cyanide Sweet Tooth Suicide (Live) (Electric).wav” WAVE
TRACK 05 AUDIO
TITLE “Cyanide Sweet Tooth Suicide (Live) (Electric)”
PERFORMER “Shinedown”
ISRC USAT21100519
FLAGS DCP
INDEX 01 00:00:00
FILE “06. If You Only Knew (Live) (Electric).wav” WAVE
TRACK 06 AUDIO
TITLE “If You Only Knew (Live) (Electric)”
PERFORMER “Shinedown”
ISRC USAT21100520
FLAGS DCP
INDEX 01 00:00:00
FILE “07. Diamond Eyes (Boo-Lay Boom-Lay Boom) (Live) (Electric).wav” WAVE
TRACK 07 AUDIO
TITLE “Diamond Eyes (Boo-Lay Boom-Lay Boom) (Live) (Electric)”
PERFORMER “Shinedown”
ISRC USAT21100521
FLAGS DCP
INDEX 01 00:00:00
FILE “08. 45 (Live) (Electric).wav” WAVE
TRACK 08 AUDIO
TITLE “45 (Live) (Electric)”
PERFORMER “Shinedown”
ISRC USAT21100522
FLAGS DCP
INDEX 01 00:00:00
FILE “09. Burning Bright (Live) (Electric).wav” WAVE
TRACK 09 AUDIO
TITLE “Burning Bright (Live) (Electric)”
PERFORMER “Shinedown”
ISRC USAT21100523
FLAGS DCP
INDEX 01 00:00:00
FILE “10. Heroes (Live) (Electric).wav” WAVE
TRACK 10 AUDIO
TITLE “Heroes (Live) (Electric)”
PERFORMER “Shinedown”
ISRC USAT21100524
FLAGS DCP
INDEX 01 00:00:00
FILE “11. The Crow & The Butterfly (Live) (Electric).wav” WAVE
TRACK 11 AUDIO
TITLE “The Crow & The Butterfly (Live) (Electric)”
PERFORMER “Shinedown”
ISRC USAT21100525
FLAGS DCP
INDEX 01 00:00:00
FILE “12. Her Name Is Alice (Live) (Electric).wav” WAVE
TRACK 12 AUDIO
TITLE “Her Name Is Alice (Live) (Electric)”
PERFORMER “Shinedown”
ISRC USAT21100526
FLAGS DCP
INDEX 01 00:00:00
FILE “13. Save Me (Live) (Electric).wav” WAVE
TRACK 13 AUDIO
TITLE “Save Me (Live) (Electric)”
PERFORMER “Shinedown”
ISRC USAT21100527
FLAGS DCP
INDEX 01 00:00:00
FILE “14. Left Out (Live) (Electric).wav” WAVE
TRACK 14 AUDIO
TITLE “Left Out (Live) (Electric)”
PERFORMER “Shinedown”
ISRC USAT21100528
FLAGS DCP
INDEX 01 00:00:00
FILE “15. Simple Man (Live) (Electric).wav” WAVE
TRACK 15 AUDIO
TITLE “Simple Man (Live) (Electric)”
PERFORMER “Shinedown”
ISRC USAT21100529
FLAGS DCP
INDEX 01 00:00:00
FILE “16. Fly From The Inside (Live) (Electric).wav” WAVE
TRACK 16 AUDIO
TITLE “Fly From The Inside (Live) (Electric)”
PERFORMER “Shinedown”
ISRC USAT21100530
FLAGS DCP
INDEX 01 00:00:00
FILE “17. Second Chance (Live) (Electric).wav” WAVE
TRACK 17 AUDIO
TITLE “Second Chance (Live) (Electric)”
PERFORMER “Shinedown”
ISRC USAT21100531
FLAGS DCP
INDEX 01 00:00:00

REM GENRE Rock
REM DATE 2011
REM DISCID E3129F10
REM COMMENT “ExactAudioCopy v1.0b1”
CATALOG 0075678827112
PERFORMER “Shinedown”
TITLE “Somewhere In The Stratosphere (CD2)”
FILE “01. Heroes (Live) (Acoustic).wav” WAVE
TRACK 01 AUDIO
TITLE “Heroes (Live) (Acoustic)”
PERFORMER “Shinedown”
ISRC USAT21100565
FLAGS DCP
INDEX 01 00:00:00
FILE “02. Save Me (Live) (Acoustic).wav” WAVE
TRACK 02 AUDIO
TITLE “Save Me (Live) (Acoustic)”
PERFORMER “Shinedown”
ISRC USAT21100566
FLAGS DCP
INDEX 01 00:00:00
FILE “03. If You Only Knew (Live) (Acoustic).wav” WAVE
TRACK 03 AUDIO
TITLE “If You Only Knew (Live) (Acoustic)”
PERFORMER “Shinedown”
ISRC USAT21100567
FLAGS DCP
INDEX 01 00:00:00
FILE “04. Sound Of Madness (Live) (Acoustic).wav” WAVE
TRACK 04 AUDIO
TITLE “Sound Of Madness (Live) (Acoustic)”
PERFORMER “Shinedown”
ISRC USAT21100568
FLAGS DCP
INDEX 01 00:00:00
FILE “05. Shed Some Light (Live) (Acoustic).wav” WAVE
TRACK 05 AUDIO
TITLE “Shed Some Light (Live) (Acoustic)”
PERFORMER “Shinedown”
ISRC USAT21100569
FLAGS DCP
INDEX 01 00:00:00
FILE “06. 45 (Live) (Acoustic).wav” WAVE
TRACK 06 AUDIO
TITLE “45 (Live) (Acoustic)”
PERFORMER “Shinedown”
ISRC USAT21100570
FLAGS DCP
INDEX 01 00:00:00
FILE “07. I Dare You (Live) (Acoustic).wav” WAVE
TRACK 07 AUDIO
TITLE “I Dare You (Live) (Acoustic)”
PERFORMER “Shinedown”
ISRC USAT21100571
FLAGS DCP
INDEX 01 00:00:00
FILE “08. Times Like These (Live) (Acoustic).wav” WAVE
TRACK 08 AUDIO
TITLE “Times Like These (Live) (Acoustic)”
PERFORMER “Shinedown”
ISRC USAT21100572
FLAGS DCP
INDEX 01 00:00:00
FILE “09. The Crow & The Butterfly (Live) (Acoustic).wav” WAVE
TRACK 09 AUDIO
TITLE “The Crow & The Butterfly (Live) (Acoustic)”
PERFORMER “Shinedown”
ISRC USAT21100573
FLAGS DCP
INDEX 01 00:00:00
FILE “10. Burning Bright (Live) (Acoustic).wav” WAVE
TRACK 10 AUDIO
TITLE “Burning Bright (Live) (Acoustic)”
PERFORMER “Shinedown”
ISRC USAT21100574
FLAGS DCP
INDEX 01 00:00:00
FILE “11. Devour (Live) (Acoustic).wav” WAVE
TRACK 11 AUDIO
TITLE “Devour (Live) (Acoustic)”
PERFORMER “Shinedown”
ISRC USAT21100575
FLAGS DCP
INDEX 01 00:00:00
FILE “12. Call Me (Live) (Acoustic).wav” WAVE
TRACK 12 AUDIO
TITLE “Call Me (Live) (Acoustic)”
PERFORMER “Shinedown”
ISRC USAT21100576
FLAGS DCP
INDEX 01 00:00:00
FILE “13. Fly From The Inside (Live) (Acoustic).wav” WAVE
TRACK 13 AUDIO
TITLE “Fly From The Inside (Live) (Acoustic)”
PERFORMER “Shinedown”
ISRC USAT21100577
FLAGS DCP
INDEX 01 00:00:00
FILE “14. With A Little Help From My Friends (Featuring Will Hoge) (Live) (Acoustic).wav” WAVE
TRACK 14 AUDIO
TITLE “With A Little Help From My Friends (Featuring Will Hoge) (Live) (Acoustic)”
PERFORMER “Shinedown”
ISRC USAT21100578
FLAGS DCP
INDEX 01 00:00:00
FILE “15. Simple Man (Live) (Acoustic).wav” WAVE
TRACK 15 AUDIO
TITLE “Simple Man (Live) (Acoustic)”
PERFORMER “Shinedown”
ISRC USAT21100579
FLAGS DCP
INDEX 01 00:00:00
FILE “16. Second Chance (Live) (Acoustic).wav” WAVE
TRACK 16 AUDIO
TITLE “Second Chance (Live) (Acoustic)”
PERFORMER “Shinedown”
ISRC USAT21100580
FLAGS DCP
INDEX 01 00:00:00


Leave a Reply

Your email address will not be published. Required fields are marked *

Enter the text from the image below
 

This site uses Akismet to reduce spam. Learn how your comment data is processed.