Shinedown – Leave A Whisper




[Total: 0    Average: 0/5]

Artist: Shinedown
Year: 2003
Genre: Rock
Notes: Discogs
Add. Notes:
Cover incl.: Yes
Encoder: FLAC
Bitrate: ~1000 kBit/s (44.1 kHz/16 Bit/s)
Log & Cue incl.: Yes
Size: 336 MB
Password: “slam” (without ” “)


All Downloads/Hosters are compatible

Download 1
Share-online.biz
KatFile.com
Rapidgator.net
Mexa.sh
Download 2
Share-online.biz
KatFile.com
Rapidgator.net
Mexa.sh

Tracklist:

1 - Fly From The Inside - 3:55
2 - Left Out - 3:51
3 - Lost In The Crowd - 3:58
4 - No More Love - 3:46
5 - Better Version - 3:44
6 - Burning Bright - 3:46
7 - In Memory - 4:04
8 - All I Ever Wanted - 4:12
9 - Stranger Inside - 4:01
10 - Lacerated - 4:00
11 - Crying Out - 3:34
12 - 45 - 4:09

EAC-Log, CUE-Sheed & NFO:

Click to open spoiler
EAC extraction logfile from 18. March 2007, 12:09 for CD
Shinedown / Leave A Whisper

Used drive : TSSTcorpCD/DVDW SH-S182D Adapter: 0 ID: 1
Read mode : Secure with NO C2, accurate stream, disable cache
Combined read/write offset correction : 6
Overread into Lead-In and Lead-Out : No

Used output format : C:\Program Files\FLAC\flac.exe (User Defined Encoder)
128 kBit/s
Additional command line options : -V -8 -T “artist=%a” -T “title=%t” -T “album=%g” -T “date=%y” -T “tracknumber=%n” -T “genre=%m” %s

Other options :
Fill up missing offset samples with silence : Yes
Delete leading and trailing silent blocks : No
Installed external ASPI interface

Track 1
Filename C:\Documents and Settings\Domino\Desktop\Leave A Whisper\01 – Fly From The Inside.wav

Peak level 99.9 %
Track quality 100.0 %
Test CRC B8A5C567
Copy CRC B8A5C567
Copy OK

Track 2
Filename C:\Documents and Settings\Domino\Desktop\Leave A Whisper\02 – Left Out.wav

Peak level 99.9 %
Track quality 100.0 %
Test CRC DA9F1853
Copy CRC DA9F1853
Copy OK

Track 3
Filename C:\Documents and Settings\Domino\Desktop\Leave A Whisper\03 – Lost In The Crowd.wav

Peak level 99.9 %
Track quality 100.0 %
Test CRC DCE342AD
Copy CRC DCE342AD
Copy OK

Track 4
Filename C:\Documents and Settings\Domino\Desktop\Leave A Whisper\04 – No More Love.wav

Peak level 99.8 %
Track quality 100.0 %
Test CRC 3CE5B92D
Copy CRC 3CE5B92D
Copy OK

Track 5
Filename C:\Documents and Settings\Domino\Desktop\Leave A Whisper\05 – Better Version.wav

Peak level 99.9 %
Track quality 100.0 %
Test CRC 09F3D45F
Copy CRC 09F3D45F
Copy OK

Track 6
Filename C:\Documents and Settings\Domino\Desktop\Leave A Whisper\06 – Burning Bright.wav

Peak level 99.4 %
Track quality 100.0 %
Test CRC 7B67A1FA
Copy CRC 7B67A1FA
Copy OK

Track 7
Filename C:\Documents and Settings\Domino\Desktop\Leave A Whisper\07 – In Memory.wav

Peak level 99.9 %
Track quality 100.0 %
Test CRC C53B17EA
Copy CRC C53B17EA
Copy OK

Track 8
Filename C:\Documents and Settings\Domino\Desktop\Leave A Whisper\08 – All I Ever Wanted.wav

Peak level 99.9 %
Track quality 100.0 %
Test CRC A63985E8
Copy CRC A63985E8
Copy OK

Track 9
Filename C:\Documents and Settings\Domino\Desktop\Leave A Whisper\09 – Stranger Inside.wav

Peak level 99.9 %
Track quality 100.0 %
Test CRC 86F44D3C
Copy CRC 86F44D3C
Copy OK

Track 10
Filename C:\Documents and Settings\Domino\Desktop\Leave A Whisper\10 – Lacerated.wav

Peak level 99.9 %
Track quality 100.0 %
Test CRC 8C9CDC19
Copy CRC 8C9CDC19
Copy OK

Track 11
Filename C:\Documents and Settings\Domino\Desktop\Leave A Whisper\11 – Crying Out.wav

Peak level 99.9 %
Track quality 100.0 %
Test CRC F3BD5E2B
Copy CRC F3BD5E2B
Copy OK

Track 12
Filename C:\Documents and Settings\Domino\Desktop\Leave A Whisper\12 – 45.wav

Peak level 99.8 %
Track quality 99.9 %
Test CRC DEFDD19B
Copy CRC DEFDD19B
Copy OK

No errors occured

End of status report

REM GENRE “Alt. Rock”
REM DATE 2003
REM DISCID BA0D530D
REM COMMENT “ExactAudioCopy v0.95b4”
PERFORMER “Shinedown”
TITLE “Leave A Whisper”
FILE “Leave A Whisper\01 – Fly From The Inside.wav” WAVE
TRACK 01 AUDIO
TITLE “Fly From The Inside”
PERFORMER “Shinedown”
INDEX 01 00:00:00
FILE “Leave A Whisper\02 – Left Out.wav” WAVE
TRACK 02 AUDIO
TITLE “Left Out”
PERFORMER “Shinedown”
INDEX 01 00:00:00
TRACK 03 AUDIO
TITLE “Lost In The Crowd”
PERFORMER “Shinedown”
INDEX 00 03:51:38
FILE “Leave A Whisper\03 – Lost In The Crowd.wav” WAVE
INDEX 01 00:00:00
FILE “Leave A Whisper\04 – No More Love.wav” WAVE
TRACK 04 AUDIO
TITLE “No More Love”
PERFORMER “Shinedown”
INDEX 01 00:00:00
TRACK 05 AUDIO
TITLE “Better Version”
PERFORMER “Shinedown”
INDEX 00 03:46:27
FILE “Leave A Whisper\05 – Better Version.wav” WAVE
INDEX 01 00:00:00
TRACK 06 AUDIO
TITLE “Burning Bright”
PERFORMER “Shinedown”
INDEX 00 03:45:52
FILE “Leave A Whisper\06 – Burning Bright.wav” WAVE
INDEX 01 00:00:00
TRACK 07 AUDIO
TITLE “In Memory”
PERFORMER “Shinedown”
INDEX 00 03:46:73
FILE “Leave A Whisper\07 – In Memory.wav” WAVE
INDEX 01 00:00:00
TRACK 08 AUDIO
TITLE “All I Ever Wanted”
PERFORMER “Shinedown”
INDEX 00 04:04:26
FILE “Leave A Whisper\08 – All I Ever Wanted.wav” WAVE
INDEX 01 00:00:00
FILE “Leave A Whisper\09 – Stranger Inside.wav” WAVE
TRACK 09 AUDIO
TITLE “Stranger Inside”
PERFORMER “Shinedown”
INDEX 01 00:00:00
TRACK 10 AUDIO
TITLE “Lacerated”
PERFORMER “Shinedown”
INDEX 00 04:01:08
FILE “Leave A Whisper\10 – Lacerated.wav” WAVE
INDEX 01 00:00:00
FILE “Leave A Whisper\11 – Crying Out.wav” WAVE
TRACK 11 AUDIO
TITLE “Crying Out”
PERFORMER “Shinedown”
INDEX 01 00:00:00
FILE “Leave A Whisper\12 – 45.wav” WAVE
TRACK 12 AUDIO
TITLE “45”
PERFORMER “Shinedown”
INDEX 01 00:00:00
TRACK 13 MODEx/2xxx
TITLE “Data Track”
PERFORMER “Shinedown”
INDEX 00 04:09:53


Spread the Download

Leave a Reply

Your email address will not be published. Required fields are marked *

Enter the text from the image below
 

This site uses Akismet to reduce spam. Learn how your comment data is processed.