Shinedown – Amaryllis




[Total: 0    Average: 0/5]

Artist: Shinedown
Year: 2012
Genre: Metal
Notes: Discogs
Add. Notes:
Cover incl.: Yes
Encoder: FLAC
Bitrate: ~1000 kBit/s (44.1 kHz/16 Bit/s)
Log & Cue incl.: Yes
Size: 337 MB
Password: “slam” (without ” “)


All Downloads/Hosters are compatible

Download 1
Share-online.biz
KatFile.com
Rapidgator.net
Mexa.sh
Download 2
Share-online.biz
KatFile.com
Rapidgator.net
Mexa.sh

Tracklist:

1 - Adrenaline - 3:26
2 - Bully - 4:02
3 - Amaryllis - 4:04
4 - Unity - 4:12
5 - Enemies - 3:08
6 - I'm Not Alright - 3:07
7 - Nowhere Kids - 3:11
8 - Miracle - 3:38
9 - I'll Follow You - 3:58
10 - For My Sake - 3:47
11 - My Name (Wearing Me Out) - 
3:36
12 - Through The Ghost - 4:01

EAC-Log, CUE-Sheed & NFO:

Click to open spoiler
Exact Audio Copy V1.0 beta 3 from 29. August 2011

EAC extraction logfile from 23. March 2012, 13:51

Shinedown / Amaryllis

Used drive : SONY DVD RW DRU-810A Adapter: 5 ID: 0

Read mode : Secure
Utilize accurate stream : Yes
Defeat audio cache : Yes
Make use of C2 pointers : No

Read offset correction : 618
Overread into Lead-In and Lead-Out : No
Fill up missing offset samples with silence : Yes
Delete leading and trailing silent blocks : No
Null samples used in CRC calculations : Yes
Used interface : Native Win32 interface for Win NT & 2000
Gap handling : Appended to previous track

Used output format : User Defined Encoder
Selected bitrate : 128 kBit/s
Quality : High
Add ID3 tag : No
Command line compressor : C:\flac.exe
Additional command line options : -8 -V -T “ARTIST=%artist%” -T “TITLE=%title%” -T “ALBUM=%albumtitle%” -T “DATE=%year%” -T “TRACKNUMBER=%tracknr%” -T “GENRE=%genre%” -T “PERFORMER=%albuminterpret%” -T “COMPOSER=%composer%” %haslyrics%–tag-from-file=LYRICS=”%lyricsfile%”%haslyrics% -T “ALBUMARTIST=%albumartist%” -T “ALBUM ARTIST=%albumartist%” -T “DISCNUMBER=%cdnumber%” -T “TOTALDISCS=%totalcds%” -T “TOTALTRACKS=%numtracks%” -T “COMMENT=%comment%” %source% -o %dest%

TOC of the extracted CD

Track | Start | Length | Start sector | End sector
———————————————————
1 | 0:00.00 | 3:26.17 | 0 | 15466
2 | 3:26.17 | 4:02.56 | 15467 | 33672
3 | 7:28.73 | 4:04.24 | 33673 | 51996
4 | 11:33.22 | 4:12.60 | 51997 | 70956
5 | 15:46.07 | 3:08.07 | 70957 | 85063
6 | 18:54.14 | 3:07.32 | 85064 | 99120
7 | 22:01.46 | 3:11.41 | 99121 | 113486
8 | 25:13.12 | 3:38.73 | 113487 | 129909
9 | 28:52.10 | 3:58.57 | 129910 | 147816
10 | 32:50.67 | 3:47.16 | 147817 | 164857
11 | 36:38.08 | 3:36.14 | 164858 | 181071
12 | 40:14.22 | 4:01.19 | 181072 | 199165

Track 1

Filename C:\Rips\01 – Adrenaline.wav

Pre-gap length 0:00:02.00

Peak level 100.0 %
Extraction speed 4.4 X
Track quality 100.0 %
Test CRC BDD4A950
Copy CRC BDD4A950
Track not present in AccurateRip database
Copy OK

Track 2

Filename C:\Rips\02 – Bully.wav

Peak level 100.0 %
Extraction speed 5.0 X
Track quality 100.0 %
Test CRC 27B722C1
Copy CRC 27B722C1
Track not present in AccurateRip database
Copy OK

Track 3

Filename C:\Rips\03 – Amaryllis.wav

Peak level 100.0 %
Extraction speed 4.6 X
Track quality 99.9 %
Test CRC A3EF6B0F
Copy CRC A3EF6B0F
Track not present in AccurateRip database
Copy OK

Track 4

Filename C:\Rips\04 – Unity – Shinedown.wav

Peak level 100.0 %
Extraction speed 5.8 X
Track quality 100.0 %
Test CRC 0F1A298A
Copy CRC 0F1A298A
Track not present in AccurateRip database
Copy OK

Track 5

Filename C:\Rips\05 – Enemies – Shinedown.wav

Peak level 100.0 %
Extraction speed 5.9 X
Track quality 100.0 %
Test CRC 7DE7B12A
Copy CRC 7DE7B12A
Track not present in AccurateRip database
Copy OK

Track 6

Filename C:\Rips\06 – I’m Not Allright.wav

Peak level 100.0 %
Extraction speed 6.1 X
Track quality 100.0 %
Test CRC 8775D98D
Copy CRC 8775D98D
Track not present in AccurateRip database
Copy OK

Track 7

Filename C:\Rips\07 – Nowhere Kids.wav

Peak level 100.0 %
Extraction speed 5.2 X
Track quality 99.9 %
Test CRC 4E0D6826
Copy CRC 4E0D6826
Track not present in AccurateRip database
Copy OK

Track 8

Filename C:\Rips\08 – Miracle – Shinedown.wav

Peak level 100.0 %
Extraction speed 6.8 X
Track quality 100.0 %
Test CRC C6E91C44
Copy CRC C6E91C44
Track not present in AccurateRip database
Copy OK

Track 9

Filename C:\Rips\09 – I’ll Follow You – Shinedown.wav

Peak level 100.0 %
Extraction speed 7.1 X
Track quality 100.0 %
Test CRC 2B37C0E7
Copy CRC 2B37C0E7
Track not present in AccurateRip database
Copy OK

Track 10

Filename C:\Rips\10 – For My Sake – Shinedown.wav

Peak level 100.0 %
Extraction speed 7.3 X
Track quality 100.0 %
Test CRC FAF583B2
Copy CRC FAF583B2
Track not present in AccurateRip database
Copy OK

Track 11

Filename C:\Rips\11 – My Name (Wearing Me Out) – Shinedown.wav

Peak level 100.0 %
Extraction speed 7.5 X
Track quality 100.0 %
Test CRC B5B52188
Copy CRC B5B52188
Track not present in AccurateRip database
Copy OK

Track 12

Filename C:\Rips\12 – Through The Ghost – Shinedown.wav

Peak level 100.0 %
Extraction speed 7.8 X
Track quality 100.0 %
Test CRC 80FF666B
Copy CRC 80FF666B
Track not present in AccurateRip database
Copy OK

None of the tracks are present in the AccurateRip database

No errors occurred

End of status report

—- CUETools DB Plugin V2.1.3

[CTDB TOCID: 3Q1o6I06RjQZYAkrycxHCy5O6l0-] found, Submit result: already submitted
[80acca4b] (1/1) Accurately ripped

==== Log checksum 187C504302A4D834124BBDEC2C47E9D62B26D092A40FA9C811F80332A2C7A62F ====

————————————————————

Exact Audio Copy V1.0 beta 3 from 29. August 2011

EAC extraction logfile from 23. March 2012, 13:51

Shinedown / Amaryllis

Used drive : SONY DVD RW DRU-810A Adapter: 5 ID: 0

Read mode : Secure
Utilize accurate stream : Yes
Defeat audio cache : Yes
Make use of C2 pointers : No

Read offset correction : 618
Overread into Lead-In and Lead-Out : No
Fill up missing offset samples with silence : Yes
Delete leading and trailing silent blocks : No
Null samples used in CRC calculations : Yes
Used interface : Native Win32 interface for Win NT & 2000
Gap handling : Appended to previous track

Used output format : User Defined Encoder
Selected bitrate : 128 kBit/s
Quality : High
Add ID3 tag : No
Command line compressor : C:\flac.exe
Additional command line options : -8 -V -T “ARTIST=%artist%” -T “TITLE=%title%” -T “ALBUM=%albumtitle%” -T “DATE=%year%” -T “TRACKNUMBER=%tracknr%” -T “GENRE=%genre%” -T “PERFORMER=%albuminterpret%” -T “COMPOSER=%composer%” %haslyrics%–tag-from-file=LYRICS=”%lyricsfile%”%haslyrics% -T “ALBUMARTIST=%albumartist%” -T “ALBUM ARTIST=%albumartist%” -T “DISCNUMBER=%cdnumber%” -T “TOTALDISCS=%totalcds%” -T “TOTALTRACKS=%numtracks%” -T “COMMENT=%comment%” %source% -o %dest%

TOC of the extracted CD

Track | Start | Length | Start sector | End sector
———————————————————
1 | 0:00.00 | 3:26.17 | 0 | 15466
2 | 3:26.17 | 4:02.56 | 15467 | 33672
3 | 7:28.73 | 4:04.24 | 33673 | 51996
4 | 11:33.22 | 4:12.60 | 51997 | 70956
5 | 15:46.07 | 3:08.07 | 70957 | 85063
6 | 18:54.14 | 3:07.32 | 85064 | 99120
7 | 22:01.46 | 3:11.41 | 99121 | 113486
8 | 25:13.12 | 3:38.73 | 113487 | 129909
9 | 28:52.10 | 3:58.57 | 129910 | 147816
10 | 32:50.67 | 3:47.16 | 147817 | 164857
11 | 36:38.08 | 3:36.14 | 164858 | 181071
12 | 40:14.22 | 4:01.19 | 181072 | 199165

Track 1

Filename C:\Rips\01 – Adrenaline.wav

Pre-gap length 0:00:02.00

Peak level 100.0 %
Extraction speed 4.4 X
Track quality 100.0 %
Test CRC BDD4A950
Copy CRC BDD4A950
Track not present in AccurateRip database
Copy OK

Track 2

Filename C:\Rips\02 – Bully.wav

Peak level 100.0 %
Extraction speed 5.0 X
Track quality 100.0 %
Test CRC 27B722C1
Copy CRC 27B722C1
Track not present in AccurateRip database
Copy OK

Track 3

Filename C:\Rips\03 – Amaryllis.wav

Peak level 100.0 %
Extraction speed 4.6 X
Track quality 99.9 %
Test CRC A3EF6B0F
Copy CRC A3EF6B0F
Track not present in AccurateRip database
Copy OK

Track 4

Filename C:\Rips\04 – Unity – Shinedown.wav

Peak level 100.0 %
Extraction speed 5.8 X
Track quality 100.0 %
Test CRC 0F1A298A
Copy CRC 0F1A298A
Track not present in AccurateRip database
Copy OK

Track 5

Filename C:\Rips\05 – Enemies – Shinedown.wav

Peak level 100.0 %
Extraction speed 5.9 X
Track quality 100.0 %
Test CRC 7DE7B12A
Copy CRC 7DE7B12A
Track not present in AccurateRip database
Copy OK

Track 6

Filename C:\Rips\06 – I’m Not Allright.wav

Peak level 100.0 %
Extraction speed 6.1 X
Track quality 100.0 %
Test CRC 8775D98D
Copy CRC 8775D98D
Track not present in AccurateRip database
Copy OK

Track 7

Filename C:\Rips\07 – Nowhere Kids.wav

Peak level 100.0 %
Extraction speed 5.2 X
Track quality 99.9 %
Test CRC 4E0D6826
Copy CRC 4E0D6826
Track not present in AccurateRip database
Copy OK

Track 8

Filename C:\Rips\08 – Miracle – Shinedown.wav

Peak level 100.0 %
Extraction speed 6.8 X
Track quality 100.0 %
Test CRC C6E91C44
Copy CRC C6E91C44
Track not present in AccurateRip database
Copy OK

Track 9

Filename C:\Rips\09 – I’ll Follow You – Shinedown.wav

Peak level 100.0 %
Extraction speed 7.1 X
Track quality 100.0 %
Test CRC 2B37C0E7
Copy CRC 2B37C0E7
Track not present in AccurateRip database
Copy OK

Track 10

Filename C:\Rips\10 – For My Sake – Shinedown.wav

Peak level 100.0 %
Extraction speed 7.3 X
Track quality 100.0 %
Test CRC FAF583B2
Copy CRC FAF583B2
Track not present in AccurateRip database
Copy OK

Track 11

Filename C:\Rips\11 – My Name (Wearing Me Out) – Shinedown.wav

Peak level 100.0 %
Extraction speed 7.5 X
Track quality 100.0 %
Test CRC B5B52188
Copy CRC B5B52188
Track not present in AccurateRip database
Copy OK

Track 12

Filename C:\Rips\12 – Through The Ghost – Shinedown.wav

Peak level 100.0 %
Extraction speed 7.8 X
Track quality 100.0 %
Test CRC 80FF666B
Copy CRC 80FF666B
Track not present in AccurateRip database
Copy OK

None of the tracks are present in the AccurateRip database

No errors occurred

End of status report

—- CUETools DB Plugin V2.1.3

[CTDB TOCID: 3Q1o6I06RjQZYAkrycxHCy5O6l0-] found, Submit result: already submitted
[80acca4b] (1/1) Accurately ripped

==== Log checksum 187C504302A4D834124BBDEC2C47E9D62B26D092A40FA9C811F80332A2C7A62F ====

REM GENRE “Heavy Metal”
REM DATE 2012
REM DISCID 910A5F0C
REM COMMENT “ExactAudioCopy v1.0b3”
CATALOG 0075678825743
PERFORMER “Shinedown”
TITLE “Amaryllis”
FILE “01 – Adrenaline.wav” WAVE
TRACK 01 AUDIO
TITLE “Adrenaline”
PERFORMER “Shinedown”
ISRC USAT21200232
INDEX 01 00:00:00
FILE “02 – Bully.wav” WAVE
TRACK 02 AUDIO
TITLE “Bully”
PERFORMER “Shinedown”
ISRC USAT21200232
FLAGS DCP
INDEX 01 00:00:00
FILE “03 – Amaryllis.wav” WAVE
TRACK 03 AUDIO
TITLE “Amaryllis”
PERFORMER “Shinedown”
ISRC USAT21104118
FLAGS DCP
INDEX 01 00:00:00
FILE “04 – Unity – Shinedown.wav” WAVE
TRACK 04 AUDIO
TITLE “Unity – Shinedown”
PERFORMER “Shinedown”
ISRC USAT21200234
FLAGS DCP
INDEX 01 00:00:00
FILE “05 – Enemies – Shinedown.wav” WAVE
TRACK 05 AUDIO
TITLE “Enemies – Shinedown”
PERFORMER “Shinedown”
ISRC USAT21200235
FLAGS DCP
INDEX 01 00:00:00
FILE “06 – I’m Not Allright.wav” WAVE
TRACK 06 AUDIO
TITLE “I’m Not Allright”
PERFORMER “Shinedown”
ISRC USAT21200235
FLAGS DCP
INDEX 01 00:00:00
FILE “07 – Nowhere Kids.wav” WAVE
TRACK 07 AUDIO
TITLE “Nowhere Kids”
PERFORMER “Shinedown”
ISRC USAT21200237
FLAGS DCP
INDEX 01 00:00:00
FILE “08 – Miracle – Shinedown.wav” WAVE
TRACK 08 AUDIO
TITLE “Miracle – Shinedown”
PERFORMER “Shinedown”
ISRC USAT21200237
FLAGS DCP
INDEX 01 00:00:00
FILE “09 – I’ll Follow You – Shinedown.wav” WAVE
TRACK 09 AUDIO
TITLE “I’ll Follow You – Shinedown”
PERFORMER “Shinedown”
ISRC USAT21200239
FLAGS DCP
INDEX 01 00:00:00
FILE “10 – For My Sake – Shinedown.wav” WAVE
TRACK 10 AUDIO
TITLE “For My Sake – Shinedown”
PERFORMER “Shinedown”
ISRC USAT21200240
FLAGS DCP
INDEX 01 00:00:00
FILE “11 – My Name (Wearing Me Out) – Shinedown.wav” WAVE
TRACK 11 AUDIO
TITLE “My Name (Wearing Me Out) – Shinedown”
PERFORMER “Shinedown”
ISRC USAT21200241
FLAGS DCP
INDEX 01 00:00:00
FILE “12 – Through The Ghost – Shinedown.wav” WAVE
TRACK 12 AUDIO
TITLE “Through The Ghost – Shinedown”
PERFORMER “Shinedown”
ISRC USAT21200241
FLAGS DCP
INDEX 01 00:00:00


Spread the Download

Leave a Reply

Your email address will not be published. Required fields are marked *

Enter the text from the image below
 

This site uses Akismet to reduce spam. Learn how your comment data is processed.