Sex Pistols – The Great Rock ‘N’ Roll Swindle




Artist: Sex Pistols
Year: 1979/2012
Genre: Punk
Notes: Discogs
Add. Notes:
Encoder: FLAC
Bitrate: ~900 kBit/s (44.1 kHz/16 Bit/s)
Bin/Cue incl.: Yes
Size: 511,67 MB
Password: “slam” (without ” “)


http://www.share-online.biz/dl/QDCMLTRPX2
http://www.share-online.biz/dl/1KZKLTRP1G

https://rapidgator.net/file/292fbf1593dd7a00fef34d6fdc1a715c
https://rapidgator.net/file/2c7739b487a155420d05be24764cea8d

https://uploadbyte.com/4m1sy044ceqw
https://uploadbyte.com/y1cbhmh1o2l0

https://uploadever.com/epx8z5ebo15r
https://uploadever.com/whapg9wv8ych

https://justupload.io/3a0nq65z7usm
https://justupload.io/p8ethxbj7nhq

Tracklist:

1 - God Save The Queen (Symphony) - 4:00
2 - Johnny B Goode - 2:35
3 - Road Runner - 3:39
Black Arabs - (4:45)
4.1 - Anarchy In The UK - 1:11
4.2 - God Save The Queen - 1:11
4.3 - Pretty Vacant - 1:11
4.4 - No One Is Innocent - 1:12
5 - Anarchy In The U.K. - 4:05
6 - Substitute - 3:06
7 - No Lip (Don't Give Me No Lip, Child) - 3:28
8 - (I'm Not Your) Stepping Stone - 3:06
9 - (L') Anarchiè Pour Le U.K. - 3:24
10 - Einmal War Belsen Vortrefflich (Belsen Was A Gas) 
[Live] - 2:08
11 - Einmal War Belsen Wirklich Vortrefflich (Belsen Vos A 
Gassa) - 2:12
12 - Silly Thing - 2:50
13 - My Way - 4:05
14 - I Wanna Be Me - 3:03
15 - Something Else - 2:09
16 - Rock Around The Clock - 2:02
17 - Lonely Boy - 3:01
18 - No One Is Innocent - 3:00
19 - C'mon Everybody - 1:55
20 - EMI (Orchestral) - 3:44
21 - The Great Rock 'N' Roll Swindle - 4:14
22 - Friggin' In The Riggin' - 3:33
23 - You Need Hands - 2:50
24 - Who Killed Bambi? - 3:02
25 - Watcha Gonna Do About It? - 2:00

EAC-Log, CUE-Sheed & NFO:

Click to open spoiler
Exact Audio Copy V1.0 beta 3 from 29. August 2011

EAC extraction logfile from 13. September 2012, 22:13

Sex Pistols / Great Rock ‘n’ Roll Swindle

Used drive : PLEXTOR CD-R PREMIUM Adapter: 1 ID: 0

Read mode : Secure
Utilize accurate stream : Yes
Defeat audio cache : Yes
Make use of C2 pointers : No

Read offset correction : 30
Overread into Lead-In and Lead-Out : Yes
Fill up missing offset samples with silence : Yes
Delete leading and trailing silent blocks : No
Null samples used in CRC calculations : Yes
Used interface : Native Win32 interface for Win NT & 2000
Gap handling : Appended to previous track

Used output format : User Defined Encoder
Selected bitrate : 1024 kBit/s
Quality : High
Add ID3 tag : No
Command line compressor : C:\Program Files (x86)\FLAC\flac.exe
Additional command line options : -8 -V -T “ARTIST=%artist%” -T “TITLE=%title%” -T “ALBUM=%albumtitle%” -T “DATE=%year%” -T “TRACKNUMBER=%tracknr1%” -T “GENRE=%genre%” -T “PERFORMER=%albuminterpret%” -T “COMPOSER=%composer%” %haslyrics%–tag-from-file=LYRICS=”%lyricsfile%”%haslyrics% -T “ALBUMARTIST=%albumartist%” -T “DISCNUMBER=%cdnumber%” -T “TOTALDISCS=%totalcds%” -T “TOTALTRACKS=%numtracks%” -T “COMMENT=%comment%” %source% -o %dest%

TOC of the extracted CD

Track | Start | Length | Start sector | End sector
———————————————————
1 | 0:00.00 | 4:00.26 | 0 | 18025
2 | 4:00.26 | 2:35.48 | 18026 | 29698
3 | 6:35.74 | 3:39.38 | 29699 | 46161
4 | 10:15.37 | 4:45.59 | 46162 | 67595
5 | 15:01.21 | 4:04.74 | 67596 | 85969
6 | 19:06.20 | 3:03.35 | 85970 | 99729
7 | 22:09.55 | 3:27.68 | 99730 | 115322
8 | 25:37.48 | 3:06.27 | 115323 | 129299
9 | 28:44.00 | 3:24.24 | 129300 | 144623
10 | 32:08.24 | 2:08.57 | 144624 | 154280
11 | 34:17.06 | 2:12.70 | 154281 | 164250
12 | 36:30.01 | 2:51.49 | 164251 | 177124
13 | 39:21.50 | 4:05.31 | 177125 | 195530
14 | 43:27.06 | 3:03.54 | 195531 | 209309
15 | 46:30.60 | 2:10.03 | 209310 | 219062
16 | 48:40.63 | 2:03.45 | 219063 | 228332
17 | 50:44.33 | 3:01.66 | 228333 | 241973
18 | 53:46.24 | 2:57.08 | 241974 | 255256
19 | 56:43.32 | 1:55.00 | 255257 | 263881
20 | 58:38.32 | 3:44.26 | 263882 | 280707
21 | 62:22.58 | 4:14.73 | 280708 | 299830
22 | 66:37.56 | 3:32.26 | 299831 | 315756
23 | 70:10.07 | 2:49.54 | 315757 | 328485
24 | 72:59.61 | 3:01.48 | 328486 | 342108
25 | 76:01.34 | 2:00.27 | 342109 | 351135

Track 1

Filename D:\What.CD\Sex Pistols – The Great Rock ‘n’ Roll Swindle (2012) – FLAC\01. God Save the Queen (Symphony).wav

Pre-gap length 0:00:02.00

Peak level 97.1 %
Extraction speed 2.4 X
Track quality 99.9 %
Test CRC 6841DB33
Copy CRC 6841DB33
Track not present in AccurateRip database
Copy OK

Track 2

Filename D:\What.CD\Sex Pistols – The Great Rock ‘n’ Roll Swindle (2012) – FLAC\02. Johnny B Goode.wav

Peak level 97.2 %
Extraction speed 2.5 X
Track quality 100.0 %
Test CRC 257F1A2A
Copy CRC 257F1A2A
Track not present in AccurateRip database
Copy OK

Track 3

Filename D:\What.CD\Sex Pistols – The Great Rock ‘n’ Roll Swindle (2012) – FLAC\03. Road Runner.wav

Peak level 97.2 %
Extraction speed 2.6 X
Track quality 100.0 %
Test CRC 487D0435
Copy CRC 487D0435
Track not present in AccurateRip database
Copy OK

Track 4

Filename D:\What.CD\Sex Pistols – The Great Rock ‘n’ Roll Swindle (2012) – FLAC\04. Black Arabs.wav

Peak level 97.2 %
Extraction speed 2.8 X
Track quality 100.0 %
Test CRC 6DD93D43
Copy CRC 6DD93D43
Track not present in AccurateRip database
Copy OK

Track 5

Filename D:\What.CD\Sex Pistols – The Great Rock ‘n’ Roll Swindle (2012) – FLAC\05. Anarchy in the UK.wav

Peak level 97.2 %
Extraction speed 2.4 X
Track quality 99.9 %
Test CRC A8741671
Copy CRC A8741671
Track not present in AccurateRip database
Copy OK

Track 6

Filename D:\What.CD\Sex Pistols – The Great Rock ‘n’ Roll Swindle (2012) – FLAC\06. Substitute.wav

Peak level 97.1 %
Extraction speed 2.6 X
Track quality 100.0 %
Test CRC FA7EA593
Copy CRC FA7EA593
Track not present in AccurateRip database
Copy OK

Track 7

Filename D:\What.CD\Sex Pistols – The Great Rock ‘n’ Roll Swindle (2012) – FLAC\07. Don’t Give Me No Lip, Child.wav

Peak level 97.2 %
Extraction speed 2.6 X
Track quality 100.0 %
Test CRC 9818B8DF
Copy CRC 9818B8DF
Track not present in AccurateRip database
Copy OK

Track 8

Filename D:\What.CD\Sex Pistols – The Great Rock ‘n’ Roll Swindle (2012) – FLAC\08. (I’m Not Your) Stepping Stone.wav

Peak level 97.0 %
Extraction speed 2.5 X
Track quality 100.0 %
Test CRC 46939852
Copy CRC 46939852
Track not present in AccurateRip database
Copy OK

Track 9

Filename D:\What.CD\Sex Pistols – The Great Rock ‘n’ Roll Swindle (2012) – FLAC\09. L’Anarchie Pour Le UK.wav

Peak level 91.6 %
Extraction speed 2.6 X
Track quality 100.0 %
Test CRC 2EDC4140
Copy CRC 2EDC4140
Track not present in AccurateRip database
Copy OK

Track 10

Filename D:\What.CD\Sex Pistols – The Great Rock ‘n’ Roll Swindle (2012) – FLAC\10. Einmal War Belsen Bortrefflich.wav

Peak level 97.1 %
Extraction speed 2.4 X
Track quality 100.0 %
Test CRC C0EF4818
Copy CRC C0EF4818
Track not present in AccurateRip database
Copy OK

Track 11

Filename D:\What.CD\Sex Pistols – The Great Rock ‘n’ Roll Swindle (2012) – FLAC\11. Einmal War Belsen Wirflich Bortrefflich.wav

Peak level 98.2 %
Extraction speed 2.4 X
Track quality 100.0 %
Test CRC 0D0BFC87
Copy CRC 0D0BFC87
Track not present in AccurateRip database
Copy OK

Track 12

Filename D:\What.CD\Sex Pistols – The Great Rock ‘n’ Roll Swindle (2012) – FLAC\12. Silly Thing.wav

Peak level 97.2 %
Extraction speed 2.1 X
Track quality 99.9 %
Test CRC A00162A8
Copy CRC A00162A8
Track not present in AccurateRip database
Copy OK

Track 13

Filename D:\What.CD\Sex Pistols – The Great Rock ‘n’ Roll Swindle (2012) – FLAC\13. My Way.wav

Peak level 97.8 %
Extraction speed 2.7 X
Track quality 100.0 %
Test CRC E3D401E0
Copy CRC E3D401E0
Track not present in AccurateRip database
Copy OK

Track 14

Filename D:\What.CD\Sex Pistols – The Great Rock ‘n’ Roll Swindle (2012) – FLAC\14. I Wanna Be Me.wav

Peak level 97.1 %
Extraction speed 2.6 X
Track quality 100.0 %
Test CRC 402AB41C
Copy CRC 402AB41C
Track not present in AccurateRip database
Copy OK

Track 15

Filename D:\What.CD\Sex Pistols – The Great Rock ‘n’ Roll Swindle (2012) – FLAC\15. Something Else.wav

Peak level 97.3 %
Extraction speed 2.4 X
Track quality 100.0 %
Test CRC 7498CC45
Copy CRC 7498CC45
Track not present in AccurateRip database
Copy OK

Track 16

Filename D:\What.CD\Sex Pistols – The Great Rock ‘n’ Roll Swindle (2012) – FLAC\16. Rock Around the Clock.wav

Peak level 97.0 %
Extraction speed 2.4 X
Track quality 100.0 %
Test CRC 73D57F85
Copy CRC 73D57F85
Track not present in AccurateRip database
Copy OK

Track 17

Filename D:\What.CD\Sex Pistols – The Great Rock ‘n’ Roll Swindle (2012) – FLAC\17. Lonely Boy.wav

Peak level 97.1 %
Extraction speed 2.5 X
Track quality 100.0 %
Test CRC 33B07812
Copy CRC 33B07812
Track not present in AccurateRip database
Copy OK

Track 18

Filename D:\What.CD\Sex Pistols – The Great Rock ‘n’ Roll Swindle (2012) – FLAC\18. No One is Innocent.wav

Peak level 97.2 %
Extraction speed 2.5 X
Track quality 100.0 %
Test CRC 9C2C4F09
Copy CRC 9C2C4F09
Track not present in AccurateRip database
Copy OK

Track 19

Filename D:\What.CD\Sex Pistols – The Great Rock ‘n’ Roll Swindle (2012) – FLAC\19. C’Mon Everybody.wav

Peak level 96.9 %
Extraction speed 1.9 X
Track quality 100.0 %
Test CRC 9F93CDA3
Copy CRC 9F93CDA3
Track not present in AccurateRip database
Copy OK

Track 20

Filename D:\What.CD\Sex Pistols – The Great Rock ‘n’ Roll Swindle (2012) – FLAC\20. EMI (Orchestral).wav

Peak level 97.1 %
Extraction speed 2.2 X
Track quality 100.0 %
Test CRC 61C02318
Copy CRC 61C02318
Track not present in AccurateRip database
Copy OK

Track 21

Filename D:\What.CD\Sex Pistols – The Great Rock ‘n’ Roll Swindle (2012) – FLAC\21. The Great Rock ‘n’ Roll Swindle.wav

Peak level 97.2 %
Extraction speed 2.3 X
Track quality 99.9 %
Test CRC 9F4D5174
Copy CRC 9F4D5174
Track not present in AccurateRip database
Copy OK

Track 22

Filename D:\What.CD\Sex Pistols – The Great Rock ‘n’ Roll Swindle (2012) – FLAC\22. Friggin’ in the Riggin’.wav

Peak level 97.2 %
Extraction speed 2.2 X
Track quality 100.0 %
Test CRC 69FF1261
Copy CRC 69FF1261
Track not present in AccurateRip database
Copy OK

Track 23

Filename D:\What.CD\Sex Pistols – The Great Rock ‘n’ Roll Swindle (2012) – FLAC\23. You Need Hands.wav

Peak level 97.3 %
Extraction speed 2.5 X
Track quality 100.0 %
Test CRC 880B6661
Copy CRC 880B6661
Track not present in AccurateRip database
Copy OK

Track 24

Filename D:\What.CD\Sex Pistols – The Great Rock ‘n’ Roll Swindle (2012) – FLAC\24. Who Killed Bambi.wav

Peak level 96.7 %
Extraction speed 2.6 X
Track quality 100.0 %
Test CRC 4CFA3F64
Copy CRC 4CFA3F64
Track not present in AccurateRip database
Copy OK

Track 25

Filename D:\What.CD\Sex Pistols – The Great Rock ‘n’ Roll Swindle (2012) – FLAC\25. Watcha Gonna Do About It.wav

Peak level 96.7 %
Extraction speed 2.9 X
Track quality 100.0 %
Test CRC 21786ED1
Copy CRC 21786ED1
Track not present in AccurateRip database
Copy OK

None of the tracks are present in the AccurateRip database

No errors occurred

End of status report

—- CUETools DB Plugin V2.1.3

[CTDB TOCID: 1b_TmQhfQCyCXZvL_hk64hwtxJ8-] disk not present in database, Submit result: 1b_TmQhfQCyCXZvL_hk64hwtxJ8- has been uploaded

==== Log checksum D5C98F2CD8117B0FFA8C3803FBC44E3365F59591A280D2DDE8E387DA9FCA74DB ====

REM GENRE Rock
REM DATE 1979
REM DISCID 6A124919
REM COMMENT “ExactAudioCopy v1.0b3”
CATALOG 0602527965062
PERFORMER “Sex Pistols”
TITLE “Great Rock ‘n’ Roll Swindle”
FILE “01. God Save the Queen (Symphony).wav” WAVE
TRACK 01 AUDIO
TITLE “God Save the Queen (Symphony)”
PERFORMER “Sex Pistols”
ISRC GBUM71200604
INDEX 01 00:00:00
FILE “02. Johnny B Goode.wav” WAVE
TRACK 02 AUDIO
TITLE “Johnny B Goode”
PERFORMER “Sex Pistols”
ISRC GBUM71200606
INDEX 01 00:00:00
FILE “03. Road Runner.wav” WAVE
TRACK 03 AUDIO
TITLE “Road Runner”
PERFORMER “Sex Pistols”
ISRC GBUM71200607
INDEX 01 00:00:00
FILE “04. Black Arabs.wav” WAVE
TRACK 04 AUDIO
TITLE “Black Arabs”
PERFORMER “Sex Pistols”
ISRC GBUM71200608
INDEX 01 00:00:00
FILE “05. Anarchy in the UK.wav” WAVE
TRACK 05 AUDIO
TITLE “Anarchy in the UK”
PERFORMER “Sex Pistols”
ISRC GBUM71200609
INDEX 01 00:00:00
FILE “06. Substitute.wav” WAVE
TRACK 06 AUDIO
TITLE “Substitute”
PERFORMER “Sex Pistols”
ISRC GBUM71200613
INDEX 01 00:00:00
FILE “07. Don’t Give Me No Lip, Child.wav” WAVE
TRACK 07 AUDIO
TITLE “Don’t Give Me No Lip, Child”
PERFORMER “Sex Pistols”
ISRC GBUM71200614
INDEX 01 00:00:00
FILE “08. (I’m Not Your) Stepping Stone.wav” WAVE
TRACK 08 AUDIO
TITLE “(I’m Not Your) Stepping Stone”
PERFORMER “Sex Pistols”
ISRC GBUM71200615
INDEX 01 00:00:00
FILE “09. L’Anarchie Pour Le UK.wav” WAVE
TRACK 09 AUDIO
TITLE “L’Anarchie Pour Le UK”
PERFORMER “Sex Pistols”
ISRC GBUM71200618
INDEX 01 00:00:00
FILE “10. Einmal War Belsen Bortrefflich.wav” WAVE
TRACK 10 AUDIO
TITLE “Einmal War Belsen Bortrefflich”
PERFORMER “Sex Pistols”
ISRC GBUM71200619
INDEX 01 00:00:00
FILE “11. Einmal War Belsen Wirflich Bortrefflich.wav” WAVE
TRACK 11 AUDIO
TITLE “Einmal War Belsen Wirflich Bortrefflich”
PERFORMER “Sex Pistols”
ISRC GBUM71200620
INDEX 01 00:00:00
FILE “12. Silly Thing.wav” WAVE
TRACK 12 AUDIO
TITLE “Silly Thing”
PERFORMER “Sex Pistols”
ISRC GBUM71200612
INDEX 01 00:00:00
FILE “13. My Way.wav” WAVE
TRACK 13 AUDIO
TITLE “My Way”
PERFORMER “Sex Pistols”
ISRC GBUM71200622
INDEX 01 00:00:00
FILE “14. I Wanna Be Me.wav” WAVE
TRACK 14 AUDIO
TITLE “I Wanna Be Me”
PERFORMER “Sex Pistols”
ISRC GBUM71200596
INDEX 01 00:00:00
FILE “15. Something Else.wav” WAVE
TRACK 15 AUDIO
TITLE “Something Else”
PERFORMER “Sex Pistols”
ISRC GBUM71200617
INDEX 01 00:00:00
FILE “16. Rock Around the Clock.wav” WAVE
TRACK 16 AUDIO
TITLE “Rock Around the Clock”
PERFORMER “Sex Pistols”
ISRC GBUM71200605
INDEX 01 00:00:00
FILE “17. Lonely Boy.wav” WAVE
TRACK 17 AUDIO
TITLE “Lonely Boy”
PERFORMER “Sex Pistols”
ISRC GBUM71200616
INDEX 01 00:00:00
FILE “18. No One is Innocent.wav” WAVE
TRACK 18 AUDIO
TITLE “No One is Innocent”
PERFORMER “Sex Pistols”
ISRC GBUM71200621
INDEX 01 00:00:00
FILE “19. C’Mon Everybody.wav” WAVE
TRACK 19 AUDIO
TITLE “C’Mon Everybody”
PERFORMER “Sex Pistols”
ISRC GBUM71200623
INDEX 01 00:00:00
FILE “20. EMI (Orchestral).wav” WAVE
TRACK 20 AUDIO
TITLE “EMI (Orchestral)”
PERFORMER “Sex Pistols”
ISRC GBUM71200624
INDEX 01 00:00:00
FILE “21. The Great Rock ‘n’ Roll Swindle.wav” WAVE
TRACK 21 AUDIO
TITLE “The Great Rock ‘n’ Roll Swindle”
PERFORMER “Sex Pistols”
ISRC GBUM71200625
INDEX 01 00:00:00
FILE “22. Friggin’ in the Riggin’.wav” WAVE
TRACK 22 AUDIO
TITLE “Friggin’ in the Riggin'”
PERFORMER “Sex Pistols”
ISRC GBUM71200627
INDEX 01 00:00:00
FILE “23. You Need Hands.wav” WAVE
TRACK 23 AUDIO
TITLE “You Need Hands”
PERFORMER “Sex Pistols”
ISRC GBUM71200626
INDEX 01 00:00:00
FILE “24. Who Killed Bambi.wav” WAVE
TRACK 24 AUDIO
TITLE “Who Killed Bambi?”
PERFORMER “Sex Pistols”
ISRC GBUM71200611
INDEX 01 00:00:00
FILE “25. Watcha Gonna Do About It.wav” WAVE
TRACK 25 AUDIO
TITLE “Watcha Gonna Do About It?”
PERFORMER “Sex Pistols”
ISRC GBUM71200610
INDEX 01 00:00:00

Leave a Reply

Your email address will not be published. Required fields are marked *

This site uses Akismet to reduce spam. Learn how your comment data is processed.