Sex Pistols – Never Mind The Bollocks (Limited Remastered Japanese Edition)




Artist: Sex Pistols
Year: 1977/2013
Genre: Punk
Notes: Discogs
Add. Notes: Limited Remastered Japanese Edition
Encoder: FLAC
Bitrate: ~1400 kBit/s (44.1 kHz/16 Bit/s)
Bin/Cue incl.: Yes
Size: 405,46 MB
Password: “slam” (without ” “)


http://www.share-online.biz/dl/JLTGKRRP6Y4
https://rapidgator.net/file/979bda00e3b8575a6f39f04db1e86c60
https://uploadbyte.com/rrify77g3729
https://uploadever.com/l1ws7jn023z6

Tracklist:

1 - Holidays In The Sun 	
2 - Bodies 	
3 - No Feelings 	
4 - Liar 	
5 - God Save The Queen 	
6 - Problems 	
7 - Seventeen 	
8 - Anarchy In The U.K. 	
9 - Submission 	
10 - Pretty Vacant 	
11 - New York 	
12 - EMI

EAC-Log, CUE-Sheed & NFO:

Click to open spoiler
X Lossless Decoder version 20160920 (149.2)

XLD extraction logfile from 2018-11-13 18:27:02 +0300

Sex Pistols / Never Mind The Bollocks Here’s The Sex Pistols

Used drive : OPTIARC DVD RW AD-5630A (revision 2CH9)
Media type : Pressed CD

Ripper mode : XLD Secure Ripper
Disable audio cache : OK for the drive with a cache less than 1375KiB
Make use of C2 pointers : NO
Read offset correction : 48
Max retry count : 20
Gap status : Analyzed, Appended

TOC of the extracted CD
Track | Start | Length | Start sector | End sector
———————————————————
1 | 00:00:00 | 03:22:28 | 0 | 15177
2 | 03:22:28 | 03:03:27 | 15178 | 28929
3 | 06:25:55 | 02:50:73 | 28930 | 41752
4 | 09:16:53 | 02:42:12 | 41753 | 53914
5 | 11:58:65 | 03:19:30 | 53915 | 68869
6 | 15:18:20 | 04:11:18 | 68870 | 87712
7 | 19:29:38 | 02:02:60 | 87713 | 96922
8 | 21:32:23 | 03:32:32 | 96923 | 112854
9 | 25:04:55 | 04:13:18 | 112855 | 131847
10 | 29:17:73 | 03:17:35 | 131848 | 146657
11 | 32:35:33 | 03:05:20 | 146658 | 160552
12 | 35:40:53 | 03:11:02 | 160553 | 174879

AccurateRip Summary (DiscID: 0011174c-00a0468a-9b091b0c)
Track 01 : OK (v2, confidence 2/2)
Track 02 : OK (v2, confidence 2/2)
Track 03 : OK (v2, confidence 2/2)
Track 04 : OK (v2, confidence 2/2)
Track 05 : OK (v2, confidence 2/2)
Track 06 : OK (v2, confidence 2/2)
Track 07 : OK (v2, confidence 2/2)
Track 08 : OK (v2, confidence 2/2)
Track 09 : OK (v2, confidence 2/2)
Track 10 : OK (v2, confidence 2/2)
Track 11 : OK (v2, confidence 2/2)
Track 12 : OK (v2, confidence 2/2)
->All tracks accurately ripped.

All Tracks
Filename : /Users/dima/Music/iTunes/iTunes Media/Music/1/Nanowar of Steel – 2018 – Stairway To Valhalla (FLAC)/Never Mind The Bollocks Here’s The Sex Pistols.flac
Album gain : -6.90 dB
Peak : 1.000000
CRC32 hash (test run) : 98AEA356
CRC32 hash : 98AEA356
CRC32 hash (skip zero) : C16A3A04
Statistics
Read error : 0
Jitter error (maybe fixed) : 0
Retry sector count : 0
Damaged sector count : 0

Track 01
Pre-gap length : 00:02:00

Track gain : -7.79 dB
Peak : 0.976105
CRC32 hash (test run) : 7155B4DC
CRC32 hash : 7155B4DC
CRC32 hash (skip zero) : 4CBC9DA2
AccurateRip v1 signature : A6B6B8B5
AccurateRip v2 signature : E6298942
->Accurately ripped (v2, confidence 2/2)
Statistics
Read error : 0
Jitter error (maybe fixed) : 0
Retry sector count : 0
Damaged sector count : 0

Track 02

Track gain : -6.40 dB
Peak : 1.000000
CRC32 hash (test run) : DA613490
CRC32 hash : DA613490
CRC32 hash (skip zero) : D16CA966
AccurateRip v1 signature : C436FB11
AccurateRip v2 signature : E88AC3FE
->Accurately ripped (v2, confidence 2/2)
Statistics
Read error : 0
Jitter error (maybe fixed) : 0
Retry sector count : 0
Damaged sector count : 0

Track 03

Track gain : -6.40 dB
Peak : 0.969513
CRC32 hash (test run) : 000DE237
CRC32 hash : 000DE237
CRC32 hash (skip zero) : C8F810C3
AccurateRip v1 signature : 55B8813C
AccurateRip v2 signature : 1F7582E8
->Accurately ripped (v2, confidence 2/2)
Statistics
Read error : 0
Jitter error (maybe fixed) : 0
Retry sector count : 0
Damaged sector count : 0

Track 04

Track gain : -6.65 dB
Peak : 0.959259
CRC32 hash (test run) : 5B6446BE
CRC32 hash : 5B6446BE
CRC32 hash (skip zero) : E17D1C32
AccurateRip v1 signature : 37A75C93
AccurateRip v2 signature : DE8F0C36
->Accurately ripped (v2, confidence 2/2)
Statistics
Read error : 0
Jitter error (maybe fixed) : 0
Retry sector count : 0
Damaged sector count : 0

Track 05

Track gain : -6.59 dB
Peak : 0.999969
CRC32 hash (test run) : EF57F36A
CRC32 hash : EF57F36A
CRC32 hash (skip zero) : 4410E70C
AccurateRip v1 signature : C61B4626
AccurateRip v2 signature : 1AC42248
->Accurately ripped (v2, confidence 2/2)
Statistics
Read error : 0
Jitter error (maybe fixed) : 0
Retry sector count : 0
Damaged sector count : 0

Track 06

Track gain : -6.58 dB
Peak : 0.968964
CRC32 hash (test run) : 0939E306
CRC32 hash : 0939E306
CRC32 hash (skip zero) : A8423AFE
AccurateRip v1 signature : 2846B2D8
AccurateRip v2 signature : 11BE48BF
->Accurately ripped (v2, confidence 2/2)
Statistics
Read error : 0
Jitter error (maybe fixed) : 0
Retry sector count : 0
Damaged sector count : 0

Track 07

Track gain : -6.64 dB
Peak : 0.950531
CRC32 hash (test run) : DD236805
CRC32 hash : DD236805
CRC32 hash (skip zero) : 18687AF5
AccurateRip v1 signature : 8546B968
AccurateRip v2 signature : 63C83293
->Accurately ripped (v2, confidence 2/2)
Statistics
Read error : 0
Jitter error (maybe fixed) : 0
Retry sector count : 0
Damaged sector count : 0

Track 08

Track gain : -6.78 dB
Peak : 0.967072
CRC32 hash (test run) : 2E465C92
CRC32 hash : 2E465C92
CRC32 hash (skip zero) : 3A93E4E4
AccurateRip v1 signature : A70DAA03
AccurateRip v2 signature : F4C0E88D
->Accurately ripped (v2, confidence 2/2)
Statistics
Read error : 0
Jitter error (maybe fixed) : 0
Retry sector count : 0
Damaged sector count : 0

Track 09

Track gain : -5.44 dB
Peak : 0.965942
CRC32 hash (test run) : A2230101
CRC32 hash : A2230101
CRC32 hash (skip zero) : F57EB060
AccurateRip v1 signature : F65305AE
AccurateRip v2 signature : 2D7C3F93
->Accurately ripped (v2, confidence 2/2)
Statistics
Read error : 0
Jitter error (maybe fixed) : 0
Retry sector count : 0
Damaged sector count : 0

Track 10

Track gain : -6.70 dB
Peak : 0.967743
CRC32 hash (test run) : 7B4D1D05
CRC32 hash : 7B4D1D05
CRC32 hash (skip zero) : 239AEAA2
AccurateRip v1 signature : 25546464
AccurateRip v2 signature : B3EB2BE1
->Accurately ripped (v2, confidence 2/2)
Statistics
Read error : 0
Jitter error (maybe fixed) : 0
Retry sector count : 0
Damaged sector count : 0

Track 11

Track gain : -6.36 dB
Peak : 0.976746
CRC32 hash (test run) : E1187B25
CRC32 hash : E1187B25
CRC32 hash (skip zero) : 8B2467FB
AccurateRip v1 signature : FA864FC8
AccurateRip v2 signature : 929B0868
->Accurately ripped (v2, confidence 2/2)
Statistics
Read error : 0
Jitter error (maybe fixed) : 0
Retry sector count : 0
Damaged sector count : 0

Track 12

Track gain : -7.90 dB
Peak : 0.974548
CRC32 hash (test run) : 0B30C58E
CRC32 hash : 0B30C58E
CRC32 hash (skip zero) : 908232D6
AccurateRip v1 signature : 9B93E0F7
AccurateRip v2 signature : 412663BE
->Accurately ripped (v2, confidence 2/2)
Statistics
Read error : 0
Jitter error (maybe fixed) : 0
Retry sector count : 0
Damaged sector count : 0

No errors occurred

End of status report

TITLE “Never Mind The Bollocks Here’s The Sex Pistols”
PERFORMER “Sex Pistols”
CATALOG 0602537032167
REM GENRE “Punk”
REM DATE “1977”
REM DISCNUMBER 1
REM TOTALDISCS 1
REM DISCID 9B091B0C
REM REPLAYGAIN_ALBUM_GAIN -6.90 dB
REM REPLAYGAIN_ALBUM_PEAK 1.000000
FILE “Never Mind The Bollocks Here’s The Sex Pistols.flac” WAVE
TRACK 01 AUDIO
TITLE “Holidays In The Sun”
SONGWRITER “Da Cook/S Jones/Paul Cook/Roten”
ISRC GBUM71200584
REM REPLAYGAIN_TRACK_GAIN -7.79 dB
REM REPLAYGAIN_TRACK_PEAK 0.976105
INDEX 01 00:00:00
TRACK 02 AUDIO
TITLE “Bodies”
SONGWRITER “Da Cook/S Jones/Paul Cook/Roten”
ISRC GBUM71200585
REM REPLAYGAIN_TRACK_GAIN -6.40 dB
REM REPLAYGAIN_TRACK_PEAK 1.000000
INDEX 01 03:22:28
TRACK 03 AUDIO
TITLE “No Feelings”
SONGWRITER “Da Cook/S Jones/Paul Cook/Roten”
ISRC GBUM71200586
REM REPLAYGAIN_TRACK_GAIN -6.40 dB
REM REPLAYGAIN_TRACK_PEAK 0.969513
INDEX 01 06:25:55
TRACK 04 AUDIO
TITLE “Liar”
SONGWRITER “Da Cook/S Jones/Paul Cook/Roten”
ISRC GBUM71200587
REM REPLAYGAIN_TRACK_GAIN -6.65 dB
REM REPLAYGAIN_TRACK_PEAK 0.959259
INDEX 01 09:16:53
TRACK 05 AUDIO
TITLE “God Save The Queen”
SONGWRITER “Da Cook/S Jones/Paul Cook/Roten”
ISRC GBUM71200588
REM REPLAYGAIN_TRACK_GAIN -6.59 dB
REM REPLAYGAIN_TRACK_PEAK 0.999969
INDEX 01 11:58:65
TRACK 06 AUDIO
TITLE “Problems”
SONGWRITER “Da Cook/S Jones/Paul Cook/Roten”
ISRC GBUM71200589
REM REPLAYGAIN_TRACK_GAIN -6.58 dB
REM REPLAYGAIN_TRACK_PEAK 0.968964
INDEX 01 15:18:20
TRACK 07 AUDIO
TITLE “Seventeen”
SONGWRITER “Da Cook/S Jones/Paul Cook/Roten”
ISRC GBUM71200590
REM REPLAYGAIN_TRACK_GAIN -6.64 dB
REM REPLAYGAIN_TRACK_PEAK 0.950531
INDEX 01 19:29:38
TRACK 08 AUDIO
TITLE “Anarchy In The UK”
SONGWRITER “Da Cook/S Jones/Paul Cook/Roten”
ISRC GBUM71200591
REM REPLAYGAIN_TRACK_GAIN -6.78 dB
REM REPLAYGAIN_TRACK_PEAK 0.967072
INDEX 01 21:32:23
TRACK 09 AUDIO
TITLE “Submission”
SONGWRITER “Da Cook/S Jones/Paul Cook/Roten”
ISRC GBUM71200592
REM REPLAYGAIN_TRACK_GAIN -5.44 dB
REM REPLAYGAIN_TRACK_PEAK 0.965942
INDEX 01 25:04:55
TRACK 10 AUDIO
TITLE “Pretty Vacant”
SONGWRITER “Da Cook/S Jones/Paul Cook/Roten”
ISRC GBUM71200593
REM REPLAYGAIN_TRACK_GAIN -6.70 dB
REM REPLAYGAIN_TRACK_PEAK 0.967743
INDEX 01 29:17:73
TRACK 11 AUDIO
TITLE “New York”
SONGWRITER “Da Cook/S Jones/Paul Cook/Roten”
ISRC GBUM71200594
REM REPLAYGAIN_TRACK_GAIN -6.36 dB
REM REPLAYGAIN_TRACK_PEAK 0.976746
INDEX 01 32:35:33
TRACK 12 AUDIO
TITLE “EMI”
SONGWRITER “Da Cook/S Jones/Paul Cook/Roten”
ISRC GBUM71200595
REM REPLAYGAIN_TRACK_GAIN -7.90 dB
REM REPLAYGAIN_TRACK_PEAK 0.974548
INDEX 01 35:40:53

Leave a Reply

Your email address will not be published. Required fields are marked *

This site uses Akismet to reduce spam. Learn how your comment data is processed.