Sex Pistols – Live At Budokan 1996




Artist: Sex Pistols
Year: 2012
Genre: Punk
Notes: Discogs
Add. Notes:
Cover incl.: Yes
Encoder: FLAC
Bitrate: ~900 kBit/s (44.1 kHz/16 Bit/s)
Log & Cue incl.: Yes
Size: 410,61 MB
Password: “slam” (without ” “)


All Downloads/Hosters are compatible

Download 1
Turbobit.net
KatFile.com
Rapidgator.net
NitroFlare.com
Download 2
Turbobit.net
KatFile.com
Rapidgator.net
NitroFlare.com

Tracklist:

1. Bodies 
2. Seventeen 
3. New York 
4. No Feelings 
5. Did You No Wrong 
6. God Save The Queen 
7. Liar 
8. Satellite 
9. I'm Not Your Stepping Stone 
10. Submission 	
11. Holidays In The Sun 
12. Pretty Vacant 
13. E.M.I. 
14. Anarchy In The U.K. 
15. Problems

EAC-Log, CUE-Sheed & NFO:

Click to open spoiler
Exact Audio Copy V1.0 beta 2 from 29. April 2011

EAC extraction logfile from 1. September 2016, 20:19

Sex Pistols / Live At Budokan 1996

Used drive : Optiarc DVD RW AD-5280S Adapter: 1 ID: 1

Read mode : Secure
Utilize accurate stream : Yes
Defeat audio cache : Yes
Make use of C2 pointers : No

Read offset correction : 48
Overread into Lead-In and Lead-Out : No
Fill up missing offset samples with silence : Yes
Delete leading and trailing silent blocks : No
Null samples used in CRC calculations : Yes
Used interface : Installed external ASPI interface

Used output format : User Defined Encoder
Selected bitrate : 128 kBit/s
Quality : High
Add ID3 tag : No
Command line compressor : C:\Program Files\FLAC\flac.exe
Additional command line options : -V -8 -T “Genre=%genre%” -T “Artist=%artist%” -T “Title=%title%” -T “Album=%albumtitle%” -T “Date=%year%” -T “Tracknumber=%tracknr%” -T “Comment=%comment%” %source%

TOC of the extracted CD

Track | Start | Length | Start sector | End sector
———————————————————
1 | 0:00.00 | 3:55.68 | 0 | 17692
2 | 3:55.68 | 2:07.53 | 17693 | 27270
3 | 6:03.46 | 3:38.49 | 27271 | 43669
4 | 9:42.20 | 3:08.36 | 43670 | 57805
5 | 12:50.56 | 3:27.61 | 57806 | 73391
6 | 16:18.42 | 3:22.48 | 73392 | 88589
7 | 19:41.15 | 2:57.00 | 88590 | 101864
8 | 22:38.15 | 4:17.14 | 101865 | 121153
9 | 26:55.29 | 2:52.48 | 121154 | 134101
10 | 29:48.02 | 4:10.58 | 134102 | 152909
11 | 33:58.60 | 3:36.18 | 152910 | 169127
12 | 37:35.03 | 4:05.43 | 169128 | 187545
13 | 41:40.46 | 3:59.69 | 187546 | 205539
14 | 45:40.40 | 4:49.09 | 205540 | 227223
15 | 50:29.49 | 4:23.55 | 227224 | 247003

Range status and errors

Selected range

Filename C:\Sex Pistols (2012) – Live At Budokan 1996\Sex Pistols (2012) – Live At Budokan 1996.wav

Peak level 96.6 %
Extraction speed 3.9 X
Range quality 100.0 %
Test CRC 8DE49E35
Copy CRC 8DE49E35
Copy OK

No errors occurred

AccurateRip summary

Track 1 accurately ripped (confidence 1) [B4D3E8ED] (AR v2)
Track 2 accurately ripped (confidence 1) [06281745] (AR v2)
Track 3 accurately ripped (confidence 1) [A792A054] (AR v2)
Track 4 accurately ripped (confidence 1) [FFC738C5] (AR v2)
Track 5 accurately ripped (confidence 1) [F967F086] (AR v2)
Track 6 accurately ripped (confidence 1) [40EC128E] (AR v2)
Track 7 accurately ripped (confidence 1) [F753C412] (AR v2)
Track 8 accurately ripped (confidence 1) [EC6A2B88] (AR v2)
Track 9 accurately ripped (confidence 1) [B5EAE282] (AR v2)
Track 10 accurately ripped (confidence 1) [84FB4D56] (AR v2)
Track 11 accurately ripped (confidence 1) [F5880614] (AR v2)
Track 12 accurately ripped (confidence 1) [B25787C3] (AR v2)
Track 13 accurately ripped (confidence 1) [BD2B317E] (AR v2)
Track 14 accurately ripped (confidence 1) [7E06A165] (AR v2)
Track 15 accurately ripped (confidence 1) [A8367D91] (AR v2)

All tracks accurately ripped

End of status report

==== Log checksum 122C7FA7ABA423C9C3B9F3050FFCD7844EB8F526BCCC67661E314861744E9363 ====

REM GENRE Punk
REM DATE 2012
REM DISCID BA0CDD0F
REM COMMENT “ExactAudioCopy v1.0b2”
PERFORMER “Sex Pistols”
TITLE “Live At Budokan 1996”
FILE “Sex Pistols (2012) – Live At Budokan 1996.flac” WAVE
TRACK 01 AUDIO
TITLE “Bodies”
PERFORMER “Sex Pistols”
ISRC NLEM81200668
INDEX 01 00:00:00
TRACK 02 AUDIO
TITLE “Seventeen”
PERFORMER “Sex Pistols”
ISRC NLEM81200669
INDEX 01 03:55:68
TRACK 03 AUDIO
TITLE “New York”
PERFORMER “Sex Pistols”
ISRC NLEM81200670
INDEX 01 06:03:46
TRACK 04 AUDIO
TITLE “No Feelings”
PERFORMER “Sex Pistols”
ISRC NLEM81200671
INDEX 01 09:42:20
TRACK 05 AUDIO
TITLE “Did You No Wrong”
PERFORMER “Sex Pistols”
ISRC NLEM81200672
INDEX 01 12:50:56
TRACK 06 AUDIO
TITLE “God Save The Queen”
PERFORMER “Sex Pistols”
ISRC NLEM81200673
INDEX 01 16:18:42
TRACK 07 AUDIO
TITLE “Liar”
PERFORMER “Sex Pistols”
ISRC NLEM81200674
INDEX 01 19:41:15
TRACK 08 AUDIO
TITLE “Satellite”
PERFORMER “Sex Pistols”
ISRC NLEM81200675
INDEX 01 22:38:15
TRACK 09 AUDIO
TITLE “I’m Not Your Stepping Stone”
PERFORMER “Sex Pistols”
ISRC NLEM81200676
INDEX 01 26:55:29
TRACK 10 AUDIO
TITLE “Submission”
PERFORMER “Sex Pistols”
ISRC NLEM81200677
INDEX 01 29:48:02
TRACK 11 AUDIO
TITLE “Holidays In The Sun”
PERFORMER “Sex Pistols”
ISRC NLEM81200678
INDEX 01 33:58:60
TRACK 12 AUDIO
TITLE “Pretty Vacant”
PERFORMER “Sex Pistols”
ISRC NLEM81200679
INDEX 01 37:35:03
TRACK 13 AUDIO
TITLE “E.M.I.”
PERFORMER “Sex Pistols”
ISRC NLEM81200680
INDEX 01 41:40:46
TRACK 14 AUDIO
TITLE “Anarchy In The U.K.”
PERFORMER “Sex Pistols”
ISRC NLEM81200681
INDEX 01 45:40:40
TRACK 15 AUDIO
TITLE “Problems”
PERFORMER “Sex Pistols”
ISRC NLEM81200682
INDEX 01 50:29:49


Leave a Reply

Your email address will not be published. Required fields are marked *

This site uses Akismet to reduce spam. Learn how your comment data is processed.