Sex Pistols – Filthy Lucre Live (Japanese Edition)




Artist: Sex Pistols
Year: 1999
Genre: Punk
Notes: Discogs
Add. Notes: Japanese Edition
Encoder: FLAC
Bitrate: ~1000 kBit/s (44.1 kHz/16 Bit/s)
Bin/Cue incl.: Yes
Size: 507,62 MB
Password: “slam” (without ” “)


http://www.share-online.biz/dl/LW3KYSRPA39
http://www.share-online.biz/dl/MT4KYSRPK4
https://rapidgator.net/file/2477880165f371fa03769a917c95d833
https://rapidgator.net/file/cd323be12236dff5cd5c2b0e23102bf5
https://uploadbyte.com/4u0y8fx0h91l
https://uploadbyte.com/qg36n424vhkv
https://justupload.io/0bzrpsjss9ar
https://justupload.io/uxcvi5my35bj
https://uploadever.com/gwi2vy88i2pp
https://uploadever.com/jj9zx6sgcju2

Tracklist:

1 - Bodies - 3:35
2 - Seventeen - 2:31
3 - New York - 3:26
4 - No Feelings - 2:59
5 - Did You No Wrong - 3:41
6 - God Save The Queen - 3:23
7 - Liar! - 2:46
8 - Satellite - 4:07
9 - (I'm Not Your) Steppin' Stone - 2:53
10 - Holidays In The Sun - 3:29
11 - Submission - 4:42
12 - Pretty Vacant - 3:33
13 - EMI - 4:16
14 - Anarchy In The U.K. - 3:32
15 - Problems - 4:35
16 - Buddies - 3:31
17 - No Fun - 7:10
18 - Problems (Spedding Demo) - 3:36

EAC-Log, CUE-Sheed & NFO:

Click to open spoiler
Exact Audio Copy V0.99 prebeta 4 from 23. January 2008

EAC extraction logfile from 20. December 2010, 20:54

Sex Pistols / Filthy Lucre Live (VJCP-68051)

Used drive : PLEXTOR DVDR PX-760A Adapter: 0 ID: 0

Read mode : Secure
Utilize accurate stream : Yes
Defeat audio cache : Yes
Make use of C2 pointers : No

Read offset correction : 30
Overread into Lead-In and Lead-Out : No
Fill up missing offset samples with silence : Yes
Delete leading and trailing silent blocks : No
Null samples used in CRC calculations : Yes
Used interface : Installed external ASPI interface

Used output format : Internal WAV Routines
Sample format : 44.100 Hz; 16 Bit; Stereo

TOC of the extracted CD

Track | Start | Length | Start sector | End sector
———————————————————
1 | 0:00.00 | 3:35.30 | 0 | 16154
2 | 3:35.30 | 2:31.67 | 16155 | 27546
3 | 6:07.22 | 3:26.48 | 27547 | 43044
4 | 9:33.70 | 2:59.60 | 43045 | 56529
5 | 12:33.55 | 3:41.00 | 56530 | 73104
6 | 16:14.55 | 3:23.65 | 73105 | 88394
7 | 19:38.45 | 2:46.02 | 88395 | 100846
8 | 22:24.47 | 4:07.08 | 100847 | 119379
9 | 26:31.55 | 2:53.27 | 119380 | 132381
10 | 29:25.07 | 3:29.55 | 132382 | 148111
11 | 32:54.62 | 4:42.20 | 148112 | 169281
12 | 37:37.07 | 3:33.48 | 169282 | 185304
13 | 41:10.55 | 4:16.02 | 185305 | 204506
14 | 45:26.57 | 3:32.38 | 204507 | 220444
15 | 48:59.20 | 4:36.72 | 220445 | 241216
16 | 53:36.17 | 3:32.53 | 241217 | 257169
17 | 57:08.70 | 7:12.25 | 257170 | 289594
18 | 64:21.20 | 3:36.30 | 289595 | 305824

Range status and errors

Selected range

Filename D:\bki71\Sex Pistols – Filthy Lucre Live (VJCP-68051).wav

Peak level 99.2 %
Range quality 100.0 %
Test CRC E7999B18
Copy CRC E7999B18
Copy OK

No errors occurred

AccurateRip summary

Track 1 cannot be verified as accurate (confidence 1) [6D0DA712], AccurateRip returned [18A5F9D0]
Track 2 cannot be verified as accurate (confidence 1) [4CED3200], AccurateRip returned [1BA7DBDF]
Track 3 cannot be verified as accurate (confidence 1) [9B6CD49A], AccurateRip returned [698A844D]
Track 4 cannot be verified as accurate (confidence 1) [5E34F83E], AccurateRip returned [AD86E9B7]
Track 5 cannot be verified as accurate (confidence 1) [FBBE742C], AccurateRip returned [F04A5F45]
Track 6 cannot be verified as accurate (confidence 1) [327AD0E3], AccurateRip returned [3AD8BBB4]
Track 7 cannot be verified as accurate (confidence 1) [3F630D07], AccurateRip returned [D17266B5]
Track 8 cannot be verified as accurate (confidence 1) [17A4D938], AccurateRip returned [4E9A7DA5]
Track 9 cannot be verified as accurate (confidence 1) [00302053], AccurateRip returned [43BFADE2]
Track 10 cannot be verified as accurate (confidence 1) [B465AD09], AccurateRip returned [753FB86D]
Track 11 cannot be verified as accurate (confidence 1) [5958FE6B], AccurateRip returned [1982F3F2]
Track 12 cannot be verified as accurate (confidence 1) [35C12279], AccurateRip returned [B8CEE555]
Track 13 cannot be verified as accurate (confidence 1) [3627E74A], AccurateRip returned [4D74ED95]
Track 14 cannot be verified as accurate (confidence 1) [827D10F5], AccurateRip returned [36B0CE3D]
Track 15 cannot be verified as accurate (confidence 1) [071E857C], AccurateRip returned [E62EBB8B]
Track 16 cannot be verified as accurate (confidence 1) [4BF6D813], AccurateRip returned [C3BB565B]
Track 17 cannot be verified as accurate (confidence 1) [81DC6F5B], AccurateRip returned [EE670463]
Track 18 cannot be verified as accurate (confidence 1) [DDCF7898], AccurateRip returned [9885D750]

No tracks could be verified as accurate
You may have a different pressing from the one(s) in the database

End of status report

REM GENRE “Punk Rock”
REM DATE 1996
REM DISCID 1D0FED12
REM COMMENT “ExactAudioCopy v0.99pb4”
PERFORMER “Sex Pistols”
TITLE “Filthy Lucre Live (VJCP-68051)”
FILE “Sex Pistols – Filthy Lucre Live (VJCP-68051).flac” WAVE
TRACK 01 AUDIO
TITLE “Bodies”
PERFORMER “Sex Pistols”
INDEX 01 00:00:00
TRACK 02 AUDIO
TITLE “Seventeen”
PERFORMER “Sex Pistols”
INDEX 01 03:35:30
TRACK 03 AUDIO
TITLE “New York”
PERFORMER “Sex Pistols”
INDEX 01 06:07:22
TRACK 04 AUDIO
TITLE “No Feelings”
PERFORMER “Sex Pistols”
INDEX 01 09:33:70
TRACK 05 AUDIO
TITLE “Did You No Wrong”
PERFORMER “Sex Pistols”
INDEX 01 12:33:55
TRACK 06 AUDIO
TITLE “God Save The Queen”
PERFORMER “Sex Pistols”
INDEX 01 16:14:55
TRACK 07 AUDIO
TITLE “Liar”
PERFORMER “Sex Pistols”
INDEX 01 19:38:45
TRACK 08 AUDIO
TITLE “Satellite”
PERFORMER “Sex Pistols”
INDEX 01 22:24:47
TRACK 09 AUDIO
TITLE “(I’m Not Your) Steppin’ Stone”
PERFORMER “Sex Pistols”
INDEX 01 26:31:55
TRACK 10 AUDIO
TITLE “Holidays In The Sun”
PERFORMER “Sex Pistols”
INDEX 01 29:25:07
TRACK 11 AUDIO
TITLE “Submission”
PERFORMER “Sex Pistols”
INDEX 01 32:54:62
TRACK 12 AUDIO
TITLE “Pretty Vacant”
PERFORMER “Sex Pistols”
INDEX 01 37:37:07
TRACK 13 AUDIO
TITLE “E.M.I.”
PERFORMER “Sex Pistols”
INDEX 01 41:10:55
TRACK 14 AUDIO
TITLE “Anarchy In The UK”
PERFORMER “Sex Pistols”
INDEX 01 45:26:57
TRACK 15 AUDIO
TITLE “Problems”
PERFORMER “Sex Pistols”
INDEX 01 48:59:20
TRACK 16 AUDIO
TITLE “Buddies”
PERFORMER “Sex Pistols”
INDEX 00 53:34:42
INDEX 01 53:36:17
TRACK 17 AUDIO
TITLE “No Fun”
PERFORMER “Sex Pistols”
INDEX 00 57:07:20
INDEX 01 57:08:70
TRACK 18 AUDIO
TITLE “Problems (Spedding Demo)”
PERFORMER “Sex Pistols”
INDEX 00 64:19:45
INDEX 01 64:21:20

Leave a Reply

Your email address will not be published. Required fields are marked *

This site uses Akismet to reduce spam. Learn how your comment data is processed.