Seven Spires – Emerald Seas




No Cover available

Artist: Seven Spires
Year: 2020
Genre: Metal
Notes: Discogs
Add. Notes:
Watch Songs on: YouTube
Cover incl.: Yes
Encoder: FLAC
Bitrate: ~1000 kBit/s (44.1 kHz/16 Bit/s)
Log & Cue incl.: Yes/Yes
Size: 343,9 MB
Password: “slam” (without ” “)


All Downloads/Hosters are compatible

Download 1
KatFile.com
Turbobit.net
Rapidgator.net
FileFactory.com
Download 2
KatFile.com
Turbobit.net
Rapidgator.net
FileFactory.com

Tracklist:

01. Igne Defendit (1:59)
02. Ghost of a Dream (3:42)
03. No Words Exchanged (3:28)
04. Every Crest (3:57)
05. Unmapped Darkness (4:33)
06. Succumb (3:55)
07. Drowner of Worlds (5:06)
08. Silvery Moon (3:11)
09. Bury You (3:58)
10. Fearless (5:16)
11. With Love from the Other Side (1:34)
12. The Trouble with Eternal Life (4:40)
13. Emerald Seas (3:52)

EAC-Log, CUE-Sheed & NFO:

Click to open spoiler
CUE Corrector v. 8.3.6 / b. 963 (Feb. 12, 2020)
————————————————————————————————————————————————————————————————————————
Seven Spires / Emerald Seas

Folder: Seven Spires – 2020 – Emerald Seas [FLAC]
Audio files:
01 Igne Defendit.flac [01:59.293; FLAC • 793 kbps • 16 bit \ 44100 Hz • stereo; 11,28 MB (11 831 498 B)]
02 Ghost of a Dream.flac [03:41.880; FLAC • 1043 kbps • 16 bit \ 44100 Hz • stereo; 27,61 MB (28 950 130 B)]
03 No Words Exchanged.flac [03:28.267; FLAC • 965 kbps • 16 bit \ 44100 Hz • stereo; 23,97 MB (25 136 994 B)]
04 Every Crest.flac [03:57.493; FLAC • 1042 kbps • 16 bit \ 44100 Hz • stereo; 29,53 MB (30 960 251 B)]
05 Unmapped Darkness.flac [04:32.813; FLAC • 1015 kbps • 16 bit \ 44100 Hz • stereo; 33,02 MB (34 627 857 B)]
06 Succumb.flac [03:54.573; FLAC • 1034 kbps • 16 bit \ 44100 Hz • stereo; 28,93 MB (30 338 720 B)]
07 Drowner of Worlds.flac [05:06.493; FLAC • 1018 kbps • 16 bit \ 44100 Hz • stereo; 37,22 MB (39 030 676 B)]
08 Silvery Moon.flac [03:10.613; FLAC • 887 kbps • 16 bit \ 44100 Hz • stereo; 20,17 MB (21 147 485 B)]
09 Bury You.flac [03:57.693; FLAC • 1005 kbps • 16 bit \ 44100 Hz • stereo; 28,49 MB (29 868 772 B)]
10 Fearless.flac [05:15.840; FLAC • 1038 kbps • 16 bit \ 44100 Hz • stereo; 39,09 MB (40 992 122 B)]
11 With Love from the Other Side.flac [01:33.520; FLAC • 771 kbps • 16 bit \ 44100 Hz • stereo; 8,60 MB (9 019 732 B)]
12 The Trouble with Eternal Life.flac [04:39.547; FLAC • 988 kbps • 16 bit \ 44100 Hz • stereo; 32,93 MB (34 534 213 B)]
13 Emerald Seas.flac [03:52.120; FLAC • 833 kbps • 16 bit \ 44100 Hz • stereo; 23,05 MB (24 171 941 B)]

Accuracy: -m3

File 01 Igne Defendit – 100% CDDA [01:59:22]
File 02 Ghost of a Dream – 100% CDDA [03:41:66]
File 03 No Words Exchanged – 99% CDDA [03:28:20]
File 04 Every Crest – 100% CDDA [03:57:37]
File 05 Unmapped Darkness – 99% CDDA [04:32:61]
File 06 Succumb – 99% CDDA [03:54:43]
File 07 Drowner of Worlds – 100% CDDA [05:06:37]
File 08 Silvery Moon – 99% CDDA [03:10:46]
File 09 Bury You – 100% CDDA [03:57:52]
File 10 Fearless – 100% CDDA [05:15:63]
File 11 With Love from the Other Side – 100% CDDA [01:33:39]
File 12 The Trouble with Eternal Life – 99% CDDA [04:39:41]
File 13 Emerald Seas – 100% CDDA [03:52:09]
————— Summary: —————
These tracks looks like CDDA with probability 100%.
————————————————————————————————————————————————————————————————————————

ANALYZER:
auCDtect: CD records authenticity detector, version 0.8.2
Copyright (c) 2004 Oleg Berngardt. All rights reserved.
Copyright (c) 2004 Alexander Djourik. All rights reserved.

Time elapsed: 31.6 s
Log created at February 13, 2020 18:28:19

=== 4182BCCD8F1156EF4D4C6DD9A5F3502F8AAAAD2F86FE9759F01B8626D2154A62 ===
[свернуть]
CUETools
[CUETools log; Date: 14.02.2020 5:49:07; Version: 2.1.6]
Padded some input files to a frame boundary.
[CTDB TOCID: GG6B0iwwZabJMYAaonaKXR64bFY-] disk not present in database.
[AccurateRip ID: 0016ea5f-00e92582-930b860d] disk not present in database.

Track Peak [ CRC32 ] [W/O NULL]
— 98,8 [909E6423] [A1B34B3E]
01 98,2 [9B7BC436] [30268490]
02 98,8 [6CBC3B44] [6F8C98AF]
03 98,8 [2B01D028] [17E84EDC]
04 98,8 [D8383249] [74DE4698]
05 98,8 [2ECC7218] [270374AF]
06 98,8 [92E0FEB2] [15EDA4CE]
07 98,8 [BD0363B0] [11C15F7B]
08 98,8 [EFA26DD6] [B5737544]
09 98,8 [35792FC7] [55E73981]
10 98,8 [DB1CFBE0] [EFF3F67A]
11 65,6 [3BD315F3] [2C5076B8]
12 98,8 [08DD8EAE] [4B298235]
13 98,8 [1A0EE2EC] [4812F082]
[свернуть]
DR
foobar2000 1.5.1 / Замер динамического диапазона (DR) 1.1.1
Дата отчёта: 2020-02-14 05:49:19

——————————————————————————–
Анализ: Seven Spires / Emerald Seas
——————————————————————————–

DR Пики RMS Продолжительность трека
——————————————————————————–
DR7 -0.16 дБ -12.70 дБ 1:59 01-Igne Defendit
DR5 -0.10 дБ -5.64 дБ 3:42 02-Ghost of a Dream
DR5 -0.10 дБ -7.06 дБ 3:28 03-No Words Exchanged
DR5 -0.10 дБ -5.93 дБ 3:57 04-Every Crest
DR5 -0.10 дБ -6.53 дБ 4:33 05-Unmapped Darkness
DR5 -0.10 дБ -5.47 дБ 3:55 06-Succumb
DR5 -0.10 дБ -5.82 дБ 5:06 07-Drowner of Worlds
DR6 -0.10 дБ -10.01 дБ 3:11 08-Silvery Moon
DR5 -0.10 дБ -6.85 дБ 3:58 09-Bury You
DR5 -0.10 дБ -5.54 дБ 5:16 10-Fearless
DR9 -3.66 дБ -15.68 дБ 1:34 11-With Love from the Other Side
DR5 -0.10 дБ -6.38 дБ 4:40 12-The Trouble with Eternal Life
DR8 -0.10 дБ -10.82 дБ 3:52 13-Emerald Seas
——————————————————————————–

Количество треков: 13
Реальные значения DR: DR6

Частота: 44100 Гц
Каналов: 2
Разрядность: 16
Битрейт: 821 кбит/с
Кодек: FLAC
================================================================================


Leave a Reply

Your email address will not be published. Required fields are marked *

Enter the text from the image below
 

This site uses Akismet to reduce spam. Learn how your comment data is processed.