Sepultura – The Mediator Between Head And Hands Must Be The Heart (Limited Edition)




[Total: 0    Average: 0/5]

Artist: Sepultura
Year: 2013
Genre: Metal
Notes: Discogs
Add. Notes: Limited Edition
Cover incl.: Yes
Encoder: FLAC
Bitrate: ~800 kBit/s (44.1 kHz/16 Bit/s)
Log & Cue incl.: Yes
Size: 573,19 MB
Password: “slam” (without ” “)


All Downloads/Hosters are compatible

Download 1
Share-online.biz
KatFile.com
Rapidgator.net
Mexa.sh
Download 2
Share-online.biz
KatFile.com
Rapidgator.net
Mexa.sh

Tracklist:

1 - Trauma Of War - 3:48
2 - The Vatican - 6:35
3 - Impending Doom - 4:17
4 - Manipulation Of Tragedy - 4:19
5 - Tsunami - 5:12
6 - The Bliss Of Ignorants - 4:53
7 - Grief - 5:37
8 - The Age Of The Atheist - 4:21
9 - Obsessed - 3:56
10 - Da Lama Ao Caos - 25:05

EAC-Log, CUE-Sheed & NFO:

Click to open spoiler
Exact Audio Copy V1.0 beta 3 from 29. August 2011

EAC extraction logfile from 27. January 2014, 18:08

Sepultura / The Mediator

Used drive : TSSTcorpBDDVDW SE-506BB Adapter: 2 ID: 0

Read mode : Secure
Utilize accurate stream : Yes
Defeat audio cache : Yes
Make use of C2 pointers : No

Read offset correction : 6
Overread into Lead-In and Lead-Out : No
Fill up missing offset samples with silence : Yes
Delete leading and trailing silent blocks : No
Null samples used in CRC calculations : Yes
Used interface : Installed external ASPI interface

Used output format : User Defined Encoder
Selected bitrate : 32 kBit/s
Quality : High
Add ID3 tag : No
Command line compressor : C:\Progs\WavPack\wavpack.exe
Additional command line options : -h -d %source%

TOC of the extracted CD

Track | Start | Length | Start sector | End sector
———————————————————
1 | 0:00.00 | 3:45.60 | 0 | 16934
2 | 3:45.60 | 6:33.01 | 16935 | 46410
3 | 10:18.61 | 4:15.37 | 46411 | 65572
4 | 14:34.23 | 4:16.71 | 65573 | 84843
5 | 18:51.19 | 5:10.35 | 84844 | 108128
6 | 24:01.54 | 4:51.00 | 108129 | 129953
7 | 28:52.54 | 5:34.72 | 129954 | 155075
8 | 34:27.51 | 4:19.04 | 155076 | 174504
9 | 38:46.55 | 3:53.70 | 174505 | 192049
10 | 42:40.50 | 25:02.58 | 192050 | 304757

Range status and errors

Selected range

Filename E:\EAC\Sepultura – The Mediator.wav

Peak level 100.0 %
Extraction speed 2.1 X
Range quality 100.0 %
Test CRC B4652720
Copy CRC B4652720
Copy OK

No errors occurred

AccurateRip summary

Track 1 accurately ripped (confidence 6) [FCBBAE01] (AR v2)
Track 2 accurately ripped (confidence 6) [4373C4A7] (AR v2)
Track 3 accurately ripped (confidence 6) [028FFF7A] (AR v2)
Track 4 accurately ripped (confidence 6) [4675154A] (AR v2)
Track 5 accurately ripped (confidence 6) [3CCCA0C6] (AR v2)
Track 6 accurately ripped (confidence 6) [2F35DE22] (AR v2)
Track 7 accurately ripped (confidence 6) [6C6C5C8D] (AR v2)
Track 8 accurately ripped (confidence 6) [F0D38540] (AR v2)
Track 9 accurately ripped (confidence 6) [4BCF3A68] (AR v2)
Track 10 accurately ripped (confidence 6) [8373A7B0] (AR v2)

All tracks accurately ripped

End of status report

==== Log checksum 846D6DAEB3903286D4BC82B42ED981D5FCFB24F4ACA8115DDF81E54FB286E293 ====

REM GENRE “Thrash Metal”
REM DATE 2013
REM DISCID 7C0FDF0A
REM COMMENT “ExactAudioCopy v1.0b3”
CATALOG 0727361309923
PERFORMER “Sepultura”
TITLE “The Mediator”
FILE “Sepultura – The Mediator.flac” WAVE
TRACK 01 AUDIO
TITLE “Trauma Of War”
PERFORMER “Sepultura”
ISRC DED831300521
INDEX 01 00:00:00
TRACK 02 AUDIO
TITLE “The Vatican”
PERFORMER “Sepultura”
ISRC DED831300522
INDEX 01 03:45:60
TRACK 03 AUDIO
TITLE “Impending Doom”
PERFORMER “Sepultura”
ISRC DED831300522
INDEX 01 10:18:61
TRACK 04 AUDIO
TITLE “Manipulation Of Tragedy”
PERFORMER “Sepultura”
ISRC DED831300524
INDEX 01 14:34:23
TRACK 05 AUDIO
TITLE “Tsunami”
PERFORMER “Sepultura”
ISRC DED831300525
INDEX 01 18:51:19
TRACK 06 AUDIO
TITLE “The Bliss Of Ignorants”
PERFORMER “Sepultura”
ISRC DED831300526
INDEX 01 24:01:54
TRACK 07 AUDIO
TITLE “Grief”
PERFORMER “Sepultura”
ISRC DED831300527
INDEX 01 28:52:54
TRACK 08 AUDIO
TITLE “The Age Of The Atheist”
PERFORMER “Sepultura”
ISRC DED831300528
INDEX 01 34:27:51
TRACK 09 AUDIO
TITLE “Obsessed”
PERFORMER “Sepultura”
ISRC DED831300529
INDEX 01 38:46:55
TRACK 10 AUDIO
TITLE “Da Lama Ao Caos”
PERFORMER “Sepultura”
ISRC DED831300530
INDEX 01 42:40:50


Spread the Download

Leave a Reply

Your email address will not be published. Required fields are marked *

Enter the text from the image below
 

This site uses Akismet to reduce spam. Learn how your comment data is processed.