Sepultura – The Complete Max Cavalera Collection 1987-1996




Artist: Sepultura
Year: 2013
Genre: Rock
Notes: Discogs
Add. Notes:
Cover incl.: Yes
Encoder: FLAC
Bitrate: ~1000 kBit/s (44.1 kHz/16 Bit/s)
Log & Cue incl.: Yes
Size: 1846 MB
Password: “slam” (without ” “)


All Downloads/Hosters are compatible

Download 1
KatFile.com
Turbobit.net
Rapidgator.net
Download 2
KatFile.com
Turbobit.net
Rapidgator.net

Tracklist:

Schizophrenia
1-1 - Intro - 0:32
1-2 - From The Past Comes The 
Storms - 4:57
1-3 - To The Wall - 5:39
1-4 - Escape To The Void - 4:41
1-5 - Inquisition Symphony - 7:16
1-6 - Screams Behind The Shadows - 
4:50
1-7 - Septic Schizo - 4:34
1-8 - The Abyss - 1:02
1-9 - R.I.P. (Rest In Pain) - 4:38
1-10 - Troops Of Doom 
(Schizophrenia Bonus Track) - 
3:19
Beneath The Remains
2-1 - Beneath The Remains - 5:14
2-2 - Inner Self - 5:11
2-3 - Stronger Than Hate - 5:53
2-4 - Mass Hypnosis - 4:26
2-5 - Sarcastic Existence - 4:46
2-6 - Slaves Of Pain - 4:04
2-7 - Lobotomy - 4:59
2-8 - Hungry - 4:31
2-9 - Primitive Future - 3:09
Arise
3-1 - Arise - 3:19
3-2 - Dead Embryonic Cells - 4:52
3-3 - Desperate Cry - 6:41
3-4 - Murder - 3:26
3-5 - Subtraction - 4:48
3-6 - Altered State - 6:34
3-7 - Under Siege (Regnum Irae) - 
4:54
3-8 - Meaningless Movements - 4:41
3-9 - Infected Voice - 3:19
Chaos A.D.
4-1 - Refuse/Resist - 3:20
4-2 - Territory - 4:48
4-3 - Slave New World - 2:55
4-4 - Amen - 4:27
4-5 - Kaiowas - 3:44
4-6 - Propaganda - 3:33
4-7 - Biotech Is Godzilla - 1:53
4-8 - Nomad - 4:59
4-9 - We Who Are Not As Others - 
3:43
4-10 - Manifest - 4:50
4-11 - The Hunt - 3:59
4-12 - Clenched Fist - 8:03
Roots
5-1 - Roots Bloody Roots - 3:33
5-2 - Attitute - 4:15
5-3 - Cut-Throat - 2:45
5-4 - Ratamahatta - 4:31
5-5 - Breed Apart - 4:01
5-6 - Straighthate - 5:22
5-7 - Spit - 2:46
5-8 - Lookaway - 5:26
5-9 - Dusted - 4:04
5-10 - Born Stubborn - 4:08
5-11 - Jasco - 1:58
5-12 - Itsari - 4:49
5-13 - Ambush - 4:38
5-14 - Endangered Spieces - 5:20
5-15 - Dictatorshit - 1:24
-
5-16 - Untitled - 13:19

EAC-Log, CUE-Sheed & NFO:

Click to open spoiler
Exact Audio Copy V1.0 beta 3 from 29. August 2011

EAC extraction logfile from 11. June 2014, 15:54

Sepultura / Roots [Roadrunner, 1686176152, Germany]

Used drive : PIONEER DVD-RW DVR-112D Adapter: 1 ID: 0

Read mode : Secure
Utilize accurate stream : Yes
Defeat audio cache : Yes
Make use of C2 pointers : No

Read offset correction : 48
Overread into Lead-In and Lead-Out : No
Fill up missing offset samples with silence : Yes
Delete leading and trailing silent blocks : No
Null samples used in CRC calculations : Yes
Used interface : Installed external ASPI interface

Used output format : User Defined Encoder
Selected bitrate : 1024 kBit/s
Quality : High
Add ID3 tag : No
Command line compressor : C:\Program Files\Exact Audio Copy\FLAC\FLAC.EXE
Additional command line options : -V -8 -T “Date=%year%” -T “Genre=%genre%” %source%

TOC of the extracted CD

Track | Start | Length | Start sector | End sector
———————————————————
1 | 0:00.00 | 3:32.60 | 0 | 15959
2 | 3:32.60 | 4:15.30 | 15960 | 35114
3 | 7:48.15 | 2:44.55 | 35115 | 47469
4 | 10:32.70 | 4:30.48 | 47470 | 67767
5 | 15:03.43 | 4:01.10 | 67768 | 85852
6 | 19:04.53 | 5:21.47 | 85853 | 109974
7 | 24:26.25 | 2:45.63 | 109975 | 122412
8 | 27:12.13 | 5:25.55 | 122413 | 146842
9 | 32:37.68 | 4:03.60 | 146843 | 165127
10 | 36:41.53 | 4:07.50 | 165128 | 183702
11 | 40:49.28 | 1:57.62 | 183703 | 192539
12 | 42:47.15 | 4:48.50 | 192540 | 214189
13 | 47:35.65 | 4:38.28 | 214190 | 235067
14 | 52:14.18 | 5:20.32 | 235068 | 259099
15 | 57:34.50 | 1:24.10 | 259100 | 265409
16 | 58:58.60 | 13:19.15 | 265410 | 325349

Range status and errors

Selected range

Filename C:\CDRip by Deminbek\Sepultura – Roots [Roadrunner, 1686176152, Germany].wav

Peak level 100.0 %
Extraction speed 8.0 X
Range quality 100.0 %
Test CRC F82809F3
Copy CRC F82809F3
Copy OK

No errors occurred

AccurateRip summary

Track 1 accurately ripped (confidence 6) [FA3F720C] (AR v2)
Track 2 accurately ripped (confidence 6) [AAA99B2D] (AR v2)
Track 3 accurately ripped (confidence 6) [CFD78004] (AR v2)
Track 4 accurately ripped (confidence 6) [B71FF75A] (AR v2)
Track 5 accurately ripped (confidence 6) [F16753CD] (AR v2)
Track 6 accurately ripped (confidence 6) [6C3F65D5] (AR v2)
Track 7 accurately ripped (confidence 6) [29C69D3D] (AR v2)
Track 8 accurately ripped (confidence 6) [3302578B] (AR v2)
Track 9 accurately ripped (confidence 6) [016F3E0A] (AR v2)
Track 10 accurately ripped (confidence 6) [435C0C02] (AR v2)
Track 11 accurately ripped (confidence 6) [7732742F] (AR v2)
Track 12 accurately ripped (confidence 6) [30936C3F] (AR v2)
Track 13 accurately ripped (confidence 6) [22391891] (AR v2)
Track 14 accurately ripped (confidence 6) [377089A3] (AR v2)
Track 15 accurately ripped (confidence 6) [26FE0C20] (AR v2)
Track 16 accurately ripped (confidence 6) [09581EB8] (AR v2)

All tracks accurately ripped

End of status report

—- CUETools DB Plugin V2.1.4

[CTDB TOCID: YgfMLLSJtFzeAVOHL52Db.5BUPI-] found
Submit result: YgfMLLSJtFzeAVOHL52Db.5BUPI- has been confirmed
Track | CTDB Status
1 | (11/11) Accurately ripped
2 | (11/11) Accurately ripped
3 | (11/11) Accurately ripped
4 | (11/11) Accurately ripped
5 | (11/11) Accurately ripped
6 | (11/11) Accurately ripped
7 | (11/11) Accurately ripped
8 | (11/11) Accurately ripped
9 | (11/11) Accurately ripped
10 | (11/11) Accurately ripped
11 | (11/11) Accurately ripped
12 | (11/11) Accurately ripped
13 | (11/11) Accurately ripped
14 | (11/11) Accurately ripped
15 | (11/11) Accurately ripped
16 | (11/11) Accurately ripped

==== Log checksum 26B4FDCB167F94FA209BECF242743BAF693BADE702345488E72595EA22F0F4E8 ====

Exact Audio Copy V1.0 beta 3 from 29. August 2011

EAC extraction logfile from 11. June 2014, 15:30

Sepultura / Chaos A.D. [Roadrunner, 1686176152, Germany]

Used drive : PIONEER DVD-RW DVR-112D Adapter: 1 ID: 0

Read mode : Secure
Utilize accurate stream : Yes
Defeat audio cache : Yes
Make use of C2 pointers : No

Read offset correction : 48
Overread into Lead-In and Lead-Out : No
Fill up missing offset samples with silence : Yes
Delete leading and trailing silent blocks : No
Null samples used in CRC calculations : Yes
Used interface : Installed external ASPI interface

Used output format : User Defined Encoder
Selected bitrate : 1024 kBit/s
Quality : High
Add ID3 tag : No
Command line compressor : C:\Program Files\Exact Audio Copy\FLAC\FLAC.EXE
Additional command line options : -V -8 -T “Date=%year%” -T “Genre=%genre%” %source%

TOC of the extracted CD

Track | Start | Length | Start sector | End sector
———————————————————
1 | 0:00.00 | 3:19.57 | 0 | 14981
2 | 3:19.57 | 4:47.38 | 14982 | 36544
3 | 8:07.20 | 2:55.02 | 36545 | 49671
4 | 11:02.22 | 4:27.28 | 49672 | 69724
5 | 15:29.50 | 3:43.52 | 69725 | 86501
6 | 19:13.27 | 3:33.33 | 86502 | 102509
7 | 22:46.60 | 1:52.45 | 102510 | 110954
8 | 24:39.30 | 4:59.05 | 110955 | 133384
9 | 29:38.35 | 3:42.55 | 133385 | 150089
10 | 33:21.15 | 4:49.42 | 150090 | 171806
11 | 38:10.57 | 3:59.33 | 171807 | 189764
12 | 42:10.15 | 8:02.42 | 189765 | 225956

Range status and errors

Selected range

Filename C:\CDRip by Deminbek\Sepultura – Chaos A.D. [Roadrunner, 1686176152, Germany].wav

Peak level 100.0 %
Extraction speed 6.9 X
Range quality 100.0 %
Test CRC 13095AE1
Copy CRC 13095AE1
Copy OK

No errors occurred

AccurateRip summary

Track 1 accurately ripped (confidence 6) [B6A452AD] (AR v2)
Track 2 accurately ripped (confidence 6) [8EFBB7FA] (AR v2)
Track 3 accurately ripped (confidence 6) [14E8E23C] (AR v2)
Track 4 accurately ripped (confidence 6) [9C34FD27] (AR v2)
Track 5 accurately ripped (confidence 6) [559078E5] (AR v2)
Track 6 accurately ripped (confidence 6) [ED85B995] (AR v2)
Track 7 accurately ripped (confidence 6) [A70FEF98] (AR v2)
Track 8 accurately ripped (confidence 6) [8D6CCCE7] (AR v2)
Track 9 accurately ripped (confidence 6) [C0FC3792] (AR v2)
Track 10 accurately ripped (confidence 6) [682F78CA] (AR v2)
Track 11 accurately ripped (confidence 6) [2519526C] (AR v2)
Track 12 accurately ripped (confidence 6) [D57AE89F] (AR v2)

All tracks accurately ripped

End of status report

—- CUETools DB Plugin V2.1.4

[CTDB TOCID: MoJlsFWBAW0QSZx81n6xY8orp1I-] found
Submit result: MoJlsFWBAW0QSZx81n6xY8orp1I- has been confirmed
Track | CTDB Status
1 | (61/62) Accurately ripped
2 | (62/62) Accurately ripped
3 | (62/62) Accurately ripped
4 | (62/62) Accurately ripped
5 | (62/62) Accurately ripped
6 | (62/62) Accurately ripped
7 | (62/62) Accurately ripped
8 | (62/62) Accurately ripped
9 | (62/62) Accurately ripped
10 | (62/62) Accurately ripped
11 | (60/62) Accurately ripped
12 | (62/62) Accurately ripped

==== Log checksum 21D7EF259BE17E91E65ED3302AFB55C4FE44BB157EFC47B56E2B3EA1409B6B06 ====

Exact Audio Copy V1.0 beta 3 from 29. August 2011

EAC extraction logfile from 11. June 2014, 14:19

Sepultura / Schizophrenia [Roadrunner, 1686176152, Germany]

Used drive : PIONEER DVD-RW DVR-112D Adapter: 1 ID: 0

Read mode : Secure
Utilize accurate stream : Yes
Defeat audio cache : Yes
Make use of C2 pointers : No

Read offset correction : 48
Overread into Lead-In and Lead-Out : No
Fill up missing offset samples with silence : Yes
Delete leading and trailing silent blocks : No
Null samples used in CRC calculations : Yes
Used interface : Installed external ASPI interface

Used output format : User Defined Encoder
Selected bitrate : 1024 kBit/s
Quality : High
Add ID3 tag : No
Command line compressor : C:\Program Files\Exact Audio Copy\FLAC\FLAC.EXE
Additional command line options : -V -8 -T “Date=%year%” -T “Genre=%genre%” %source%

TOC of the extracted CD

Track | Start | Length | Start sector | End sector
———————————————————
1 | 0:00.00 | 0:32.02 | 0 | 2401
2 | 0:32.02 | 4:56.65 | 2402 | 24666
3 | 5:28.67 | 5:38.70 | 24667 | 50086
4 | 11:07.62 | 4:41.00 | 50087 | 71161
5 | 15:48.62 | 7:15.67 | 71162 | 103853
6 | 23:04.54 | 4:50.36 | 103854 | 125639
7 | 27:55.15 | 4:33.72 | 125640 | 146186
8 | 32:29.12 | 1:02.10 | 146187 | 150846
9 | 33:31.22 | 4:38.15 | 150847 | 171711
10 | 38:09.37 | 3:18.39 | 171712 | 186600

Range status and errors

Selected range

Filename C:\CDRip by Deminbek\Sepultura – Schizophrenia [Roadrunner, 1686176152, Germany].wav

Peak level 100.0 %
Extraction speed 6.5 X
Range quality 99.9 %
Test CRC 87A4CD8F
Copy CRC 87A4CD8F
Copy OK

No errors occurred

AccurateRip summary

Track 1 accurately ripped (confidence 6) [66BC82FF] (AR v2)
Track 2 accurately ripped (confidence 6) [3FA9063A] (AR v2)
Track 3 accurately ripped (confidence 6) [E99FFDD0] (AR v2)
Track 4 accurately ripped (confidence 6) [953F34AA] (AR v2)
Track 5 accurately ripped (confidence 6) [645BA94D] (AR v2)
Track 6 accurately ripped (confidence 6) [F3FEC3A5] (AR v2)
Track 7 accurately ripped (confidence 6) [E2EC55B6] (AR v2)
Track 8 accurately ripped (confidence 6) [68A5EC9A] (AR v2)
Track 9 accurately ripped (confidence 6) [99ABF173] (AR v2)
Track 10 accurately ripped (confidence 6) [9432CCCF] (AR v2)

All tracks accurately ripped

End of status report

—- CUETools DB Plugin V2.1.4

[CTDB TOCID: 9G.6eVh0tFhj8URN8gDieajaOcI-] found
Submit result: 9G.6eVh0tFhj8URN8gDieajaOcI- has been confirmed
Track | CTDB Status
1 | (12/12) Accurately ripped
2 | (12/12) Accurately ripped
3 | (12/12) Accurately ripped
4 | (12/12) Accurately ripped
5 | (12/12) Accurately ripped
6 | (12/12) Accurately ripped
7 | (12/12) Accurately ripped
8 | (12/12) Accurately ripped
9 | (12/12) Accurately ripped
10 | (12/12) Accurately ripped

==== Log checksum 5BA6D909DFDF7AE9B1245DEAC925979E982DAB768F2532551B02019132B7A34B ====

Exact Audio Copy V1.0 beta 3 from 29. August 2011

EAC extraction logfile from 11. June 2014, 15:05

Sepultura / Arise [Roadrunner, 1686176152, Germany]

Used drive : PIONEER DVD-RW DVR-112D Adapter: 1 ID: 0

Read mode : Secure
Utilize accurate stream : Yes
Defeat audio cache : Yes
Make use of C2 pointers : No

Read offset correction : 48
Overread into Lead-In and Lead-Out : No
Fill up missing offset samples with silence : Yes
Delete leading and trailing silent blocks : No
Null samples used in CRC calculations : Yes
Used interface : Installed external ASPI interface

Used output format : User Defined Encoder
Selected bitrate : 1024 kBit/s
Quality : High
Add ID3 tag : No
Command line compressor : C:\Program Files\Exact Audio Copy\FLAC\FLAC.EXE
Additional command line options : -V -8 -T “Date=%year%” -T “Genre=%genre%” %source%

TOC of the extracted CD

Track | Start | Length | Start sector | End sector
———————————————————
1 | 0:00.00 | 3:18.42 | 0 | 14891
2 | 3:18.42 | 4:52.13 | 14892 | 36804
3 | 8:10.55 | 6:41.02 | 36805 | 66881
4 | 14:51.57 | 3:26.25 | 66882 | 82356
5 | 18:18.07 | 4:47.58 | 82357 | 103939
6 | 23:05.65 | 6:34.30 | 103940 | 133519
7 | 29:40.20 | 4:54.10 | 133520 | 155579
8 | 34:34.30 | 4:41.02 | 155580 | 176656
9 | 39:15.32 | 3:18.49 | 176657 | 191555

Range status and errors

Selected range

Filename C:\CDRip by Deminbek\Sepultura – Arise [Roadrunner, 1686176152, Germany].wav

Peak level 100.0 %
Extraction speed 6.6 X
Range quality 99.9 %
Test CRC BA21011A
Copy CRC BA21011A
Copy OK

No errors occurred

AccurateRip summary

Track 1 accurately ripped (confidence 6) [9DEC59F5] (AR v2)
Track 2 accurately ripped (confidence 6) [2F2DA2D3] (AR v2)
Track 3 accurately ripped (confidence 6) [40F73AA6] (AR v2)
Track 4 accurately ripped (confidence 6) [D393AFC5] (AR v2)
Track 5 accurately ripped (confidence 6) [310BB452] (AR v2)
Track 6 accurately ripped (confidence 6) [8E0C828E] (AR v2)
Track 7 accurately ripped (confidence 6) [402A7FE2] (AR v2)
Track 8 accurately ripped (confidence 6) [06E19644] (AR v2)
Track 9 accurately ripped (confidence 6) [1B5DC021] (AR v2)

All tracks accurately ripped

End of status report

—- CUETools DB Plugin V2.1.4

[CTDB TOCID: SNlvB6URikxLLKXxpsm_uVYGjW4-] found
Submit result: SNlvB6URikxLLKXxpsm_uVYGjW4- has been confirmed
Track | CTDB Status
1 | (11/11) Accurately ripped
2 | (11/11) Accurately ripped
3 | (11/11) Accurately ripped
4 | (11/11) Accurately ripped
5 | (11/11) Accurately ripped
6 | (11/11) Accurately ripped
7 | (11/11) Accurately ripped
8 | (11/11) Accurately ripped
9 | (11/11) Accurately ripped

==== Log checksum BFE7076C3C8777D1F341E75429465E0BC6A6D587F8F772C84FBF575D6F8F8D85 ====

Exact Audio Copy V1.0 beta 3 from 29. August 2011

EAC extraction logfile from 11. June 2014, 14:42

Sepultura / Beneath The Remains [Roadrunner, 1686176152, Germany]

Used drive : PIONEER DVD-RW DVR-112D Adapter: 1 ID: 0

Read mode : Secure
Utilize accurate stream : Yes
Defeat audio cache : Yes
Make use of C2 pointers : No

Read offset correction : 48
Overread into Lead-In and Lead-Out : No
Fill up missing offset samples with silence : Yes
Delete leading and trailing silent blocks : No
Null samples used in CRC calculations : Yes
Used interface : Installed external ASPI interface

Used output format : User Defined Encoder
Selected bitrate : 1024 kBit/s
Quality : High
Add ID3 tag : No
Command line compressor : C:\Program Files\Exact Audio Copy\FLAC\FLAC.EXE
Additional command line options : -V -8 -T “Date=%year%” -T “Genre=%genre%” %source%

TOC of the extracted CD

Track | Start | Length | Start sector | End sector
———————————————————
1 | 0:00.00 | 5:14.22 | 0 | 23571
2 | 5:14.22 | 5:10.55 | 23572 | 46876
3 | 10:25.02 | 5:53.03 | 46877 | 73354
4 | 16:18.05 | 4:25.65 | 73355 | 93294
5 | 20:43.70 | 4:46.35 | 93295 | 114779
6 | 25:30.30 | 4:04.02 | 114780 | 133081
7 | 29:34.32 | 4:59.13 | 133082 | 155519
8 | 34:33.45 | 4:30.42 | 155520 | 175811
9 | 39:04.12 | 3:09.05 | 175812 | 189991

Range status and errors

Selected range

Filename C:\CDRip by Deminbek\Sepultura – Beneath The Remains [Roadrunner, 1686176152, Germany].wav

Peak level 100.0 %
Extraction speed 6.6 X
Range quality 100.0 %
Test CRC C397D494
Copy CRC C397D494
Copy OK

No errors occurred

AccurateRip summary

Track 1 accurately ripped (confidence 6) [019C0D32] (AR v2)
Track 2 accurately ripped (confidence 6) [A72E7EEB] (AR v2)
Track 3 accurately ripped (confidence 6) [3ACEC50A] (AR v2)
Track 4 accurately ripped (confidence 6) [9D334B1A] (AR v2)
Track 5 accurately ripped (confidence 6) [01F552E5] (AR v2)
Track 6 accurately ripped (confidence 6) [44E3079A] (AR v2)
Track 7 accurately ripped (confidence 6) [EA542D57] (AR v2)
Track 8 accurately ripped (confidence 6) [6B933E32] (AR v2)
Track 9 accurately ripped (confidence 6) [1D964DC1] (AR v2)

All tracks accurately ripped

End of status report

—- CUETools DB Plugin V2.1.4

[CTDB TOCID: Ng7Ahsqs9QJ9AK2nhlFa1ztoYWo-] found
Submit result: Ng7Ahsqs9QJ9AK2nhlFa1ztoYWo- has been confirmed
Track | CTDB Status
1 | (11/11) Accurately ripped
2 | (11/11) Accurately ripped
3 | (11/11) Accurately ripped
4 | (11/11) Accurately ripped
5 | (11/11) Accurately ripped
6 | (11/11) Accurately ripped
7 | (11/11) Accurately ripped
8 | (11/11) Accurately ripped
9 | (11/11) Accurately ripped

==== Log checksum 89C16C8691322026E1DA67FFC0EEEBB96C1B555F1D168D4ABF24A66B8D7F7200 ====

REM GENRE “Thrash Metal”
REM DATE 2013
REM DISCID DE10F210
REM COMMENT “ExactAudioCopy v1.0b3”
CATALOG 0016861761523
PERFORMER “Sepultura”
TITLE “Roots [Roadrunner, 1686176152, Germany]”
FILE “Sepultura – Roots [Roadrunner, 1686176152, Germany].flac” WAVE
TRACK 01 AUDIO
TITLE “Roots Bloody Roots”
PERFORMER “Sepultura”
ISRC NLA329513650
INDEX 01 00:00:00
TRACK 02 AUDIO
TITLE “Attitute”
PERFORMER “Sepultura”
ISRC NLA329513660
INDEX 01 03:32:60
TRACK 03 AUDIO
TITLE “Cut-Throat”
PERFORMER “Sepultura”
ISRC NLA329513710
INDEX 01 07:48:15
TRACK 04 AUDIO
TITLE “Ratamahatta”
PERFORMER “Sepultura”
ISRC NLA329513680
INDEX 01 10:32:70
TRACK 05 AUDIO
TITLE “Breed Apart”
PERFORMER “Sepultura”
ISRC NLA329513690
INDEX 01 15:03:43
TRACK 06 AUDIO
TITLE “Straighthate”
PERFORMER “Sepultura”
ISRC NLA329513700
INDEX 01 19:04:53
TRACK 07 AUDIO
TITLE “Spit”
PERFORMER “Sepultura”
ISRC NLA329513670
INDEX 01 24:26:25
TRACK 08 AUDIO
TITLE “Lookaway”
PERFORMER “Sepultura”
ISRC NLA329513720
INDEX 01 27:12:13
TRACK 09 AUDIO
TITLE “Dusted”
PERFORMER “Sepultura”
ISRC NLA329513780
INDEX 01 32:37:68
TRACK 10 AUDIO
TITLE “Born Stubborn”
PERFORMER “Sepultura”
ISRC NLA329513730
INDEX 01 36:41:53
TRACK 11 AUDIO
TITLE “Jasco”
PERFORMER “Sepultura”
ISRC NLA329513810
INDEX 01 40:49:28
TRACK 12 AUDIO
TITLE “Itsari”
PERFORMER “Sepultura”
ISRC NLA329513760
INDEX 01 42:47:15
TRACK 13 AUDIO
TITLE “Ambush”
PERFORMER “Sepultura”
ISRC NLA329513770
INDEX 01 47:35:65
TRACK 14 AUDIO
TITLE “Endangered Spieces”
PERFORMER “Sepultura”
ISRC NLA329513740
INDEX 01 52:14:18
TRACK 15 AUDIO
TITLE “Dictatorshit”
PERFORMER “Sepultura”
ISRC NLA329513790
INDEX 01 57:34:50
TRACK 16 AUDIO
TITLE “Untitled”
PERFORMER “Sepultura”
ISRC NLA329513800
INDEX 01 58:58:60

REM GENRE “Thrash Metal”
REM DATE 2013
REM DISCID 7D09B80A
REM COMMENT “ExactAudioCopy v1.0b3”
PERFORMER “Sepultura”
TITLE “Schizophrenia [Roadrunner, 1686176152, Germany]”
FILE “Sepultura – Schizophrenia [Roadrunner, 1686176152, Germany].flac” WAVE
TRACK 01 AUDIO
TITLE “Intro”
PERFORMER “Sepultura”
ISRC NLA329780612
INDEX 01 00:00:00
TRACK 02 AUDIO
TITLE “From The Past Comes The Storms”
PERFORMER “Sepultura”
ISRC NLA329780613
INDEX 01 00:32:02
TRACK 03 AUDIO
TITLE “To The Wall”
PERFORMER “Sepultura”
ISRC NLA329780614
INDEX 00 05:28:05
INDEX 01 05:28:67
TRACK 04 AUDIO
TITLE “Escape To The Void”
PERFORMER “Sepultura”
ISRC NLA329780615
INDEX 00 11:06:02
INDEX 01 11:07:62
TRACK 05 AUDIO
TITLE “Inquisition Symphony”
PERFORMER “Sepultura”
ISRC NLA329780616
INDEX 00 15:47:10
INDEX 01 15:48:62
TRACK 06 AUDIO
TITLE “Screams Behind The Shadows”
PERFORMER “Sepultura”
ISRC NLA329780617
INDEX 00 23:02:65
INDEX 01 23:04:54
TRACK 07 AUDIO
TITLE “Septic Schizo”
PERFORMER “Sepultura”
ISRC NLA329780618
INDEX 00 27:53:65
INDEX 01 27:55:15
TRACK 08 AUDIO
TITLE “The Abyss”
PERFORMER “Sepultura”
ISRC NLA329780619
INDEX 00 32:27:42
INDEX 01 32:29:12
TRACK 09 AUDIO
TITLE “R.I.P. (Rest In Pain)”
PERFORMER “Sepultura”
ISRC NLA329780620
INDEX 01 33:31:22
TRACK 10 AUDIO
TITLE “Troops Of Doom”
PERFORMER “Sepultura”
ISRC NLA329780621
INDEX 01 38:09:37

REM GENRE “Thrash Metal”
REM DATE 2013
REM DISCID 7509E509
REM COMMENT “ExactAudioCopy v1.0b3”
PERFORMER “Sepultura”
TITLE “Beneath The Remains [Roadrunner, 1686176152, Germany]”
FILE “Sepultura – Beneath The Remains [Roadrunner, 1686176152, Germany].flac” WAVE
TRACK 01 AUDIO
TITLE “Beneath The Remains”
PERFORMER “Sepultura”
ISRC NLA329780625
INDEX 01 00:00:00
TRACK 02 AUDIO
TITLE “Inner Self”
PERFORMER “Sepultura”
ISRC NLA329780626
INDEX 01 05:14:22
TRACK 03 AUDIO
TITLE “Stronger Than Hate”
PERFORMER “Sepultura”
ISRC NLA329780627
INDEX 00 10:22:37
INDEX 01 10:25:02
TRACK 04 AUDIO
TITLE “Mass Hypnosis”
PERFORMER “Sepultura”
ISRC NLA329780628
INDEX 01 16:18:05
TRACK 05 AUDIO
TITLE “Sarcastic Existence”
PERFORMER “Sepultura”
ISRC NLA329780629
INDEX 00 20:41:30
INDEX 01 20:43:70
TRACK 06 AUDIO
TITLE “Slaves Of Pain”
PERFORMER “Sepultura”
ISRC NLA329780630
INDEX 01 25:30:30
TRACK 07 AUDIO
TITLE “Lobotomy”
PERFORMER “Sepultura”
ISRC NLA329780631
INDEX 00 29:32:62
INDEX 01 29:34:32
TRACK 08 AUDIO
TITLE “Hungry”
PERFORMER “Sepultura”
ISRC NLA329780632
INDEX 00 34:31:34
INDEX 01 34:33:45
TRACK 09 AUDIO
TITLE “Primitive Future”
PERFORMER “Sepultura”
ISRC NLA329780633
INDEX 00 39:02:72
INDEX 01 39:04:12

REM GENRE “Thrash Metal”
REM DATE 2013
REM DISCID 6E09FA09
REM COMMENT “ExactAudioCopy v1.0b3”
PERFORMER “Sepultura”
TITLE “Arise [Roadrunner, 1686176152, Germany]”
FILE “Sepultura – Arise [Roadrunner, 1686176152, Germany].flac” WAVE
TRACK 01 AUDIO
TITLE “Arise”
PERFORMER “Sepultura”
ISRC NLA329780651
INDEX 01 00:00:00
TRACK 02 AUDIO
TITLE “Dead Embryonic Cells”
PERFORMER “Sepultura”
ISRC NLA329780652
INDEX 01 03:18:42
TRACK 03 AUDIO
TITLE “Desperate Cry”
PERFORMER “Sepultura”
ISRC NLA329780653
INDEX 01 08:10:55
TRACK 04 AUDIO
TITLE “Murder”
PERFORMER “Sepultura”
ISRC NLA329780654
INDEX 01 14:51:57
TRACK 05 AUDIO
TITLE “Subtraction”
PERFORMER “Sepultura”
ISRC NLA329780655
INDEX 01 18:18:07
TRACK 06 AUDIO
TITLE “Altered State”
PERFORMER “Sepultura”
ISRC NLA329780656
INDEX 01 23:05:65
TRACK 07 AUDIO
TITLE “Under Siege (Regnum Irae)”
PERFORMER “Sepultura”
ISRC NLA329780657
INDEX 01 29:40:20
TRACK 08 AUDIO
TITLE “Meaningless Movements”
PERFORMER “Sepultura”
ISRC NLA329780658
INDEX 01 34:34:30
TRACK 09 AUDIO
TITLE “Infected Voice”
PERFORMER “Sepultura”
ISRC NLA329780659
INDEX 00 39:14:45
INDEX 01 39:15:32

REM GENRE “Thrash Metal”
REM DATE 2013
REM DISCID 930BC40C
REM COMMENT “ExactAudioCopy v1.0b3”
PERFORMER “Sepultura”
TITLE “Chaos A.D. [Roadrunner, 1686176152, Germany]”
FILE “Sepultura – Chaos A.D. [Roadrunner, 1686176152, Germany].flac” WAVE
TRACK 01 AUDIO
TITLE “Refuse/Resist”
PERFORMER “Sepultura”
ISRC NLA329301550
INDEX 01 00:00:00
TRACK 02 AUDIO
TITLE “Territory”
PERFORMER “Sepultura”
ISRC NLA329301560
INDEX 01 03:19:57
TRACK 03 AUDIO
TITLE “Slave New World”
PERFORMER “Sepultura”
ISRC NLA329301570
INDEX 01 08:07:20
TRACK 04 AUDIO
TITLE “Amen”
PERFORMER “Sepultura”
ISRC NLA329301580
INDEX 01 11:02:22
TRACK 05 AUDIO
TITLE “Kaiowas”
PERFORMER “Sepultura”
ISRC NLA329301590
INDEX 01 15:29:50
TRACK 06 AUDIO
TITLE “Propaganda”
PERFORMER “Sepultura”
ISRC NLA329301600
INDEX 01 19:13:27
TRACK 07 AUDIO
TITLE “Biotech Is Godzilla”
PERFORMER “Sepultura”
ISRC NLA329301610
INDEX 01 22:46:60
TRACK 08 AUDIO
TITLE “Nomad”
PERFORMER “Sepultura”
ISRC NLA329301620
INDEX 01 24:39:30
TRACK 09 AUDIO
TITLE “We Who Are Not As Others”
PERFORMER “Sepultura”
ISRC NLA329301630
INDEX 01 29:38:35
TRACK 10 AUDIO
TITLE “Manifest”
PERFORMER “Sepultura”
ISRC NLA329301640
INDEX 01 33:21:15
TRACK 11 AUDIO
TITLE “The Hunt”
PERFORMER “Sepultura”
ISRC NLA329301650
INDEX 00 38:08:37
INDEX 01 38:10:57
TRACK 12 AUDIO
TITLE “Clenched Fist / [untitled]”
PERFORMER “Sepultura”
ISRC NLA329301660
INDEX 01 42:10:15


Leave a Reply

Your email address will not be published. Required fields are marked *

This site uses Akismet to reduce spam. Learn how your comment data is processed.