Sepultura – The Best Of




Artist: Sepultura
Year: 2006
Genre: Metal
Notes: Discogs
Add. Notes:
Cover incl.: Yes
Encoder: FLAC
Bitrate: ~1000 kBit/s (44.1 kHz/16 Bit/s)
Log & Cue incl.: Yes
Size: 473,49 MB
Password: “slam” (without ” “)


All Downloads/Hosters are compatible

Download 1
Turbobit.net
Rapidgator.net
KatFile.com
UploadRar.com
Download 2
Turbobit.net
Rapidgator.net
KatFile.com
UploadRar.com
Download 3
Turbobit.net
Rapidgator.net
KatFile.com
UploadRar.com

Tracklist:

1 - Troops Of Doom - 3:20
2 - Beneath The Remains - 5:14
3 - Inner Self - 5:09
4 - Arise - 3:18
5 - Dead Embryonic Cells - 4:52
6 - Desperate Cry - 6:41
7 - Refuse/Resist - 3:19
8 - Territory - 4:48
9 - Slave New World - 2:56
10 - Biotech Is Godzilla - 1:54
11 - Roots Bloody Roots - 3:32
12 - Attitude - 4:16
13 - Ratamahatta - 4:31

EAC-Log, CUE-Sheed & NFO:

Click to open spoiler
Exact Audio Copy V1.3 from 2. September 2016

Отчёт EAC об извлечении, выполненном 18. февраля 2019, 11:20

Sepultura / The Best Of

Дисковод: ASUS DRW-24D5MT Adapter: 1 ID: 1

Режим чтения : Достоверность
Использование точного потока : Да
Отключение кэша аудио : Да
Использование указателей C2 : Нет

Коррекция смещения при чтении : 6
Способность читать области Lead-in и Lead-out : Нет
Заполнение пропущенных сэмплов тишиной : Да
Удаление блоков с тишиной в начале и конце : Нет
При вычислениях CRC использовались нулевые сэмплы : Да
Интерфейс : Встроенный Win32-интерфейс для Win NT/2000

Выходной формат : Пользовательский кодировщик
Выбранный битрейт : 896 kBit/s
Качество : Высокий
Добавление ID3-тега : Нет
Утилита сжатия : C:\Program Files (x86)\Exact Audio Copy\flac-1.3.1-win\win64\flac.exe
Дополнительные параметры : -8 -V -T “ARTIST=%artist%” -T “TITLE=%title%” -T “ALBUM=%albumtitle%” -T “DATE=%year%” -T “TRACKNUMBER=%tracknr%/%numtracks%” -T “GENRE=%genre%” -T “COMMENT=%comment%” %source% -o %dest%

TOC извлечённого CD

Трек | Старт | Длительность | Начальный сектор | Конечный сектор
———————————————————————
1 | 0:00.00 | 3:19.53 | 0 | 14977
2 | 3:19.53 | 5:14.12 | 14978 | 38539
3 | 8:33.65 | 5:09.19 | 38540 | 61733
4 | 13:43.09 | 3:18.17 | 61734 | 76600
5 | 17:01.26 | 4:52.13 | 76601 | 98513
6 | 21:53.39 | 6:41.31 | 98514 | 128619
7 | 28:34.70 | 3:19.17 | 128620 | 143561
8 | 31:54.12 | 4:47.36 | 143562 | 165122
9 | 36:41.48 | 2:55.39 | 165123 | 178286
10 | 39:37.12 | 1:54.33 | 178287 | 186869
11 | 41:31.45 | 3:32.19 | 186870 | 202788
12 | 45:03.64 | 4:16.01 | 202789 | 221989
13 | 49:19.65 | 4:31.10 | 221990 | 242324

Характеристики диапазона извлечения и сообщения об ошибках

Выбранный диапазон

Имя файла F:\Lossless\_DJ Stakan\Sepultura – The Best Of.wav

Пиковый уровень 100.0 %
Скорость извлечения 6.2 X
Качество диапазона 99.9 %
CRC теста 99E02940
CRC копии 99E02940
Копирование… OK

Ошибок не произошло

AccurateRip: сводка

Трек 1 : извлечено точно (доверие 16) [8C67A06C] (AR v2)
Трек 2 : извлечено точно (доверие 16) [E2F4D6CA] (AR v2)
Трек 3 : извлечено точно (доверие 16) [287410F8] (AR v2)
Трек 4 : извлечено точно (доверие 16) [38B62BE2] (AR v2)
Трек 5 : извлечено точно (доверие 16) [AF65B9D9] (AR v2)
Трек 6 : извлечено точно (доверие 16) [CD83780B] (AR v2)
Трек 7 : извлечено точно (доверие 16) [1A562862] (AR v2)
Трек 8 : извлечено точно (доверие 15) [6C1EBF28] (AR v2)
Трек 9 : извлечено точно (доверие 16) [268854C0] (AR v2)
Трек 10 : извлечено точно (доверие 16) [702BCD86] (AR v2)
Трек 11 : извлечено точно (доверие 16) [A0503E03] (AR v2)
Трек 12 : извлечено точно (доверие 16) [739F96F6] (AR v2)
Трек 13 : извлечено точно (доверие 16) [0BFB2E0B] (AR v2)

Все треки извлечены точно

Конец отчёта

—- CUETools DB Plugin V2.1.6

[CTDB TOCID: TTKoUYj4qZG3dsDFfs2uIsGAYz0-] found
Submit result: TTKoUYj4qZG3dsDFfs2uIsGAYz0- has been confirmed
Track | CTDB Status
1 | (145/145) Accurately ripped
2 | (145/145) Accurately ripped
3 | (145/145) Accurately ripped
4 | (145/145) Accurately ripped
5 | (145/145) Accurately ripped
6 | (145/145) Accurately ripped
7 | (145/145) Accurately ripped
8 | (145/145) Accurately ripped
9 | (145/145) Accurately ripped
10 | (144/145) Accurately ripped
11 | (145/145) Accurately ripped
12 | (145/145) Accurately ripped
13 | (145/145) Accurately ripped

==== Контрольная сумма отчёта 5586A3FA9A8344FA57F9A627D488588FF5F5CF4F88D22A4837A18F039A9C92AA ====

´
REM GENRE “Thrash Metal”
REM DATE 2006
REM DISCID 9D0C9F0D
REM COMMENT “ExactAudioCopy v1.3”
PERFORMER “Sepultura”
TITLE “The Best Of”
REM COMPOSER “”
FILE “Sepultura – The Best Of.flac” WAVE
TRACK 01 AUDIO
TITLE “Troops Of Doom”
PERFORMER “Sepultura”
REM COMPOSER “”
INDEX 01 00:00:00
TRACK 02 AUDIO
TITLE “Beneath The Remains”
PERFORMER “Sepultura”
REM COMPOSER “”
INDEX 01 03:19:53
TRACK 03 AUDIO
TITLE “Inner Self”
PERFORMER “Sepultura”
REM COMPOSER “”
INDEX 01 08:33:65
TRACK 04 AUDIO
TITLE “Arise”
PERFORMER “Sepultura”
REM COMPOSER “”
INDEX 01 13:43:09
TRACK 05 AUDIO
TITLE “Dead Embryonic Cells”
PERFORMER “Sepultura”
REM COMPOSER “”
INDEX 01 17:01:26
TRACK 06 AUDIO
TITLE “Desperate Cry”
PERFORMER “Sepultura”
REM COMPOSER “”
INDEX 01 21:53:39
TRACK 07 AUDIO
TITLE “Refuse-Resist”
PERFORMER “Sepultura”
REM COMPOSER “”
INDEX 01 28:34:70
TRACK 08 AUDIO
TITLE “Territory”
PERFORMER “Sepultura”
REM COMPOSER “”
INDEX 01 31:54:12
TRACK 09 AUDIO
TITLE “Slave New World”
PERFORMER “Sepultura”
REM COMPOSER “”
INDEX 01 36:41:48
TRACK 10 AUDIO
TITLE “Biotech Is Godzilla”
PERFORMER “Sepultura”
REM COMPOSER “”
INDEX 01 39:37:12
TRACK 11 AUDIO
TITLE “Roots Bloody Roots”
PERFORMER “Sepultura”
REM COMPOSER “”
INDEX 01 41:31:45
TRACK 12 AUDIO
TITLE “Attitude”
PERFORMER “Sepultura”
REM COMPOSER “”
INDEX 01 45:03:64
TRACK 13 AUDIO
TITLE “Ratamahatta”
PERFORMER “Sepultura”
REM COMPOSER “”
INDEX 01 49:19:65


Leave a Reply

Your email address will not be published. Required fields are marked *

This site uses Akismet to reduce spam. Learn how your comment data is processed.