Sepultura – Schizophrenia




[Total: 0    Average: 0/5]

Artist: Sepultura
Year: 1987/1988
Genre: Metal
Notes: Discogs
Add. Notes:
Cover incl.: Yes
Encoder: FLAC
Bitrate: ~900 kBit/s (44.1 kHz/16 Bit/s)
Log & Cue incl.: Yes
Password: “slam” (without ” “)


All Downloads/Hosters are compatible

Download 1
KatFile.com
Turbobit.net
FileFactory.com
Rapidgator.net
Download 2
KatFile.com
Turbobit.net
FileFactory.com
Rapidgator.net

Tracklist:

1 Intro / From The Past Comes The Storms 5:28
2 To The Wall 5:36
3 Escape To The Void 4:38
4 Inquisition Symphony 7:13
5 Screams Behind The Shadows 4:49
6 Septic Schizo 4:31
7 The Abyss 1:02
8 R.I.P. (Rest In Pain) 4:36

EAC-Log, CUE-Sheed & NFO:

Click to open spoiler
Exact Audio Copy V1.0 beta 1 from 15. November 2010

EAC extraction logfile from 26. November 2012, 6:11

Sepultura / Schizophrenia

Used drive : Optiarc DVD+-RW AD-7200S Adapter: 1 ID: 0

Read mode : Secure
Utilize accurate stream : Yes
Defeat audio cache : Yes
Make use of C2 pointers : No

Read offset correction : 48
Overread into Lead-In and Lead-Out : No
Fill up missing offset samples with silence : Yes
Delete leading and trailing silent blocks : No
Null samples used in CRC calculations : Yes
Used interface : Native Win32 interface for Win NT & 2000
Gap handling : Appended to previous track

Used output format : User Defined Encoder
Selected bitrate : 1024 kBit/s
Quality : High
Add ID3 tag : No
Command line compressor : C:\Program Files\Exact Audio Copy\Flac\flac.exe
Additional command line options : -8 -V -T “ARTIST=%a” -T “TITLE=%t” -T “ALBUM=%g” -T “DATE=%y” -T “TRACKNUMBER=%n” -T “TOTALTRACKS=%x” -T “GENRE=%m” -T “ALBUMARTIST=%v” -T “COMMENT=EAC V1.0 beta 1, Secure Mode, Test & Copy, AccurateRip, FLAC -8” %s

TOC of the extracted CD

Track | Start | Length | Start sector | End sector
———————————————————
1 | 0:00.00 | 5:28.00 | 0 | 24599
2 | 5:28.00 | 5:36.30 | 24600 | 49829
3 | 11:04.30 | 4:38.25 | 49830 | 70704
4 | 15:42.55 | 7:12.60 | 70705 | 103164
5 | 22:55.40 | 4:48.47 | 103165 | 124811
6 | 27:44.12 | 4:31.30 | 124812 | 145166
7 | 32:15.42 | 1:01.58 | 145167 | 149799
8 | 33:17.25 | 4:35.50 | 149800 | 170474

Track 1

Filename C:\Users\vdh\Desktop\flac\01 Intro – From The Past Comes The Storms.wav

Pre-gap length 0:00:02.00

Peak level 73.0 %
Extraction speed 2.4 X
Track quality 100.0 %
Test CRC 8F103DDB
Copy CRC 8F103DDB
Accurately ripped (confidence 1) [27F81102]
Copy OK

Track 2

Filename C:\Users\vdh\Desktop\flac\02 To The Wall.wav

Pre-gap length 0:00:02.00

Peak level 79.6 %
Extraction speed 2.8 X
Track quality 100.0 %
Test CRC F6824AE0
Copy CRC F6824AE0
Accurately ripped (confidence 1) [1C43AC6B]
Copy OK

Track 3

Filename C:\Users\vdh\Desktop\flac\03 Escape To The Void.wav

Pre-gap length 0:00:01.40

Peak level 74.2 %
Extraction speed 3.0 X
Track quality 100.0 %
Test CRC 1D79036F
Copy CRC 1D79036F
Accurately ripped (confidence 1) [E62F9FAE]
Copy OK

Track 4

Filename C:\Users\vdh\Desktop\flac\04 Inquisition Simphony.wav

Pre-gap length 0:00:01.57

Peak level 87.7 %
Extraction speed 3.5 X
Track quality 100.0 %
Test CRC 76CEAA61
Copy CRC 76CEAA61
Accurately ripped (confidence 1) [9D31D1DA]
Copy OK

Track 5

Filename C:\Users\vdh\Desktop\flac\05 Screams Behind The Shadows.wav

Pre-gap length 0:00:05.20

Peak level 96.3 %
Extraction speed 3.6 X
Track quality 100.0 %
Test CRC 8F9CC959
Copy CRC 8F9CC959
Accurately ripped (confidence 1) [10D0CE03]
Copy OK

Track 6

Filename C:\Users\vdh\Desktop\flac\06 Septic Schizo.wav

Pre-gap length 0:00:02.16

Peak level 86.5 %
Extraction speed 3.8 X
Track quality 100.0 %
Test CRC 3AB0720F
Copy CRC 3AB0720F
Accurately ripped (confidence 1) [5378CE67]
Copy OK

Track 7

Filename C:\Users\vdh\Desktop\flac\07 The Abyss.wav

Pre-gap length 0:00:01.56

Peak level 31.6 %
Extraction speed 1.9 X
Track quality 99.8 %
Test CRC 510E4080
Copy CRC 510E4080
Accurately ripped (confidence 1) [9D714326]
Copy OK

Track 8

Filename C:\Users\vdh\Desktop\flac\08 R. I. P. (Rest In Pain).wav

Pre-gap length 0:00:02.33

Peak level 73.6 %
Extraction speed 4.0 X
Track quality 100.0 %
Test CRC 51695036
Copy CRC 51695036
Accurately ripped (confidence 1) [CA7D799B]
Copy OK

All tracks accurately ripped

No errors occurred

End of status report

==== Log checksum 0324016449C020E765A227DD70B0B5CD6F6939B7060FBA688B6FCE8AE7B12A4C ====

REM GENRE “Thrash Metal”
REM DATE 1987
REM DISCID 8008E108
REM COMMENT “ExactAudioCopy v1.0b1”
PERFORMER “Sepultura”
TITLE “Schizophrenia”
FILE “01 Intro – From the Past Comes the Storms.wav” WAVE
TRACK 01 AUDIO
TITLE “Intro / From the Past Comes the Storms”
PERFORMER “Sepultura”
INDEX 01 00:00:00
TRACK 02 AUDIO
TITLE “To the Wall”
PERFORMER “Sepultura”
INDEX 00 05:26:00
FILE “02 To the Wall.wav” WAVE
INDEX 01 00:00:00
TRACK 03 AUDIO
TITLE “Escape to the Void”
PERFORMER “Sepultura”
INDEX 00 05:35:00
FILE “03 Escape to the Void.wav” WAVE
INDEX 01 00:00:00
TRACK 04 AUDIO
TITLE “Inquisition Symphony”
PERFORMER “Sepultura”
INDEX 00 04:36:57
FILE “04 Inquisition Symphony.wav” WAVE
INDEX 01 00:00:00
TRACK 05 AUDIO
TITLE “Screams Behind the Shadows”
PERFORMER “Sepultura”
INDEX 00 07:07:45
FILE “05 Screams Behind the Shadows.wav” WAVE
INDEX 01 00:00:00
TRACK 06 AUDIO
TITLE “Septic Schizo”
PERFORMER “Sepultura”
INDEX 00 04:46:35
FILE “06 Septic Schizo.wav” WAVE
INDEX 01 00:00:00
TRACK 07 AUDIO
TITLE “The Abyss”
PERFORMER “Sepultura”
INDEX 00 04:29:63
FILE “07 The Abyss.wav” WAVE
INDEX 01 00:00:00
TRACK 08 AUDIO
TITLE “R.I.P. (Rest In Pain)”
PERFORMER “Sepultura”
INDEX 00 00:59:33
FILE “08 R.I.P. (Rest In Pain).wav” WAVE
INDEX 01 00:00:00


Spread the Download

Leave a Reply

Your email address will not be published. Required fields are marked *

Enter the text from the image below
 

This site uses Akismet to reduce spam. Learn how your comment data is processed.