Sepultura – Schizophrenia (Remastered)




Artist: Sepultura
Year: 1987/1990
Genre: Rock
Notes: Discogs
Add. Notes: Remastered
Cover incl.: Yes
Encoder: FLAC
Bitrate: ~900 kBit/s (44.1 kHz/16 Bit/s)
Log & Cue incl.: Yes
Size: 275 MB
Password: “slam” (without ” “)


All Downloads/Hosters are compatible

Download 1
KatFile.com
Rapidgator.net
Turbobit.net
FileFactory.com
Download 2
KatFile.com
Rapidgator.net
Turbobit.net
FileFactory.com

Tracklist:

1 - Intro - 0:31
2 - From The Past Comes The 
Storms - 4:55
3 - To The Wall - 5:36
4 - Escape To The Void - 4:38
5 - Inquisition Symphony - 7:13
6 - Screams Behind The Shadows - 
4:48
7 - Septic Schizo - 4:31
8 - The Abyss - 1:01
9 - R.I.P. (Rest In Pain) - 4:36
10 - Troops Of Doom - 3:17

EAC-Log, CUE-Sheed & NFO:

Click to open spoiler
EAC extraction logfile from 18. June 2007, 4:40 for CD
Sepultura / Schizophrenia

Used drive : SONY CD-RW CRX225E Adapter: 0 ID: 1
Read mode : Secure with NO C2, accurate stream, disable cache
Read offset correction : 6
Overread into Lead-In and Lead-Out : No

Used output format : C:\Archivos de programa\Exact Audio Copy\FLAC.EXE (User Defined Encoder)
32 kBit/s
Additional command line options : -6 -V -T “artist=%a” -T “title=%t” -T “album=%g” -T “date=%y” -T “tracknumber=%n” -T “genre=%m” -T “comment=EAC 0.9beta4 / FLAC 1.1.0 q6” %s

Other options :
Fill up missing offset samples with silence : Yes
Delete leading and trailing silent blocks : No
Native Win32 interface for Win NT & 2000

Range status and errors
Selected range
Filename D:\MMT\LOSSLESS\SEPULTURA [1987] [CD] SCHIZOPHRENIA [EAC-FLAC] BY APHET [MeTaLMaDNeSS. TeaM]\Schizoprenia.FLAC.wav

Peak level 100.0 %
Range quality 99.9 %
CRC CAE2117D
Copy OK

No errors occured

End of status report

REM GENRE “Thrash Metal”
REM DATE 1987
PERFORMER “Sepultura”
TITLE “Schizophrenia”
FILE “Sepultura – Schizophrenia.FLAC” WAVE
TRACK 01 AUDIO
TITLE “Intro”
PERFORMER “Sepultura”
INDEX 01 00:00:00
TRACK 02 AUDIO
TITLE “From The Past Comes The Storms”
PERFORMER “Sepultura”
INDEX 01 00:31:43
TRACK 03 AUDIO
TITLE “To The Wall”
PERFORMER “Sepultura”
INDEX 00 05:27:60
INDEX 01 05:28:55
TRACK 04 AUDIO
TITLE “Escape To The Void”
PERFORMER “Sepultura”
INDEX 00 11:06:39
INDEX 01 11:07:53
TRACK 05 AUDIO
TITLE “Inquisition Symphony”
PERFORMER “Sepultura”
INDEX 00 15:47:24
INDEX 01 15:48:65
TRACK 06 AUDIO
TITLE “Screams Behind The Shadows”
PERFORMER “Sepultura”
INDEX 00 23:03:16
INDEX 01 23:04:40
TRACK 07 AUDIO
TITLE “Septic Schizo”
PERFORMER “Sepultura”
INDEX 00 27:53:42
INDEX 01 27:55:20
TRACK 08 AUDIO
TITLE “The Abyss”
PERFORMER “Sepultura”
INDEX 00 32:28:00
INDEX 01 32:29:20
TRACK 09 AUDIO
TITLE “R.I.P. (Rest In Pain)”
PERFORMER “Sepultura”
INDEX 00 33:31:46
INDEX 01 33:32:65
TRACK 10 AUDIO
TITLE “Troops Of Doom”
PERFORMER “Sepultura”
INDEX 00 38:10:66
INDEX 01 38:12:13


Leave a Reply

Your email address will not be published. Required fields are marked *

This site uses Akismet to reduce spam. Learn how your comment data is processed.