Sepultura – Roots (Argentinean Edition)




Artist: Sepultura
Year: 1996
Genre: Metal
Notes: Discogs
Add. Notes: Argentinean Edition
Cover incl.: Yes
Encoder: FLAC
Bitrate: ~1000 kBit/s (44.1 kHz/16 Bit/s)
Log & Cue incl.: Yes
Size: 494 MB
Password: “slam” (without ” “)


All Downloads/Hosters are compatible

Download 1
KatFile.com
Turbobit.net
FileFactory.com
Rapidgator.net
Download 2
KatFile.com
Turbobit.net
FileFactory.com
Rapidgator.net

Tracklist:

1 - Roots Bloody Roots - 3:32
2 - Attitude - 4:15
3 - Cut-Throat - 2:45
4 - Ratamahatta - 4:30
5 - Breed Apart - 4:01
6 - Straighthate - 5:22
7 - Spit - 2:46
8 - Lookaway - 5:26
9 - Dusted - 4:04
10 - Born Stubborn - 4:08
11 - Jasco - 1:58
12 - Itsári - 4:49
13 - Ambush - 4:40
14 - Endangered Species - 5:19
15 - Dictatorshit - 1:26
16 - Procreation [Of The Wicked]* - 3:39
Bonus Track:
17 - Symptom Of The Universe* - 4:14

EAC-Log, CUE-Sheed & NFO:

Click to open spoiler
EAC extraction logfile from 9. July 2007, 2:38 for CD
Sepultura / Roots

Used drive : SONY CD-RW CRX225E Adapter: 0 ID: 1
Read mode : Secure with NO C2, accurate stream, disable cache
Read offset correction : 6
Overread into Lead-In and Lead-Out : No

Used output format : C:\Archivos de programa\Exact Audio Copy\FLAC.EXE (User Defined Encoder)
32 kBit/s
Additional command line options : -6 -V -T “artist=%a” -T “title=%t” -T “album=%g” -T “date=%y” -T “tracknumber=%n” -T “genre=%m” -T “comment=EAC 0.9beta4 / FLAC 1.1.0 q6” %s

Other options :
Fill up missing offset samples with silence : Yes
Delete leading and trailing silent blocks : No
Native Win32 interface for Win NT & 2000

Range status and errors
Selected range
Filename D:\MMT\SEPULTURA [1996] [CD] ROOTS [EAC-FLAC] BY APHET [MeTaLMaDNeSS. TeaM]\Roots.FLAC.wav

Peak level 100.0 %
Range quality 99.9 %
CRC 660A7F60
Copy OK

No errors occured

End of status report

REM GENRE “Thrash Metal”
REM DATE 1996
PERFORMER “Sepultura”
TITLE “Roots”
FILE “Sepultura – Roots.FLAC” WAVE
TRACK 01 AUDIO
TITLE “Roots Bloody Roots”
PERFORMER “Sepultura”
INDEX 01 00:00:00
TRACK 02 AUDIO
TITLE “Attitude”
PERFORMER “Sepultura”
INDEX 00 03:32:23
INDEX 01 03:32:32
TRACK 03 AUDIO
TITLE “Cut-throat”
PERFORMER “Sepultura”
INDEX 00 07:47:27
INDEX 01 07:47:50
TRACK 04 AUDIO
TITLE “Ratamahatta”
PERFORMER “Sepultura”
INDEX 00 10:32:66
INDEX 01 10:33:00
TRACK 05 AUDIO
TITLE “Breed Apart”
PERFORMER “Sepultura”
INDEX 00 15:03:31
INDEX 01 15:03:52
TRACK 06 AUDIO
TITLE “Straighthate”
PERFORMER “Sepultura”
INDEX 00 19:05:20
INDEX 01 19:05:27
TRACK 07 AUDIO
TITLE “Spit”
PERFORMER “Sepultura”
INDEX 00 24:26:43
INDEX 01 24:26:57
TRACK 08 AUDIO
TITLE “Lookaway”
PERFORMER “Sepultura”
INDEX 00 27:12:50
INDEX 01 27:12:70
TRACK 09 AUDIO
TITLE “Dusted”
PERFORMER “Sepultura”
INDEX 00 32:39:28
INDEX 01 32:39:30
TRACK 10 AUDIO
TITLE “Born Stubborn”
PERFORMER “Sepultura”
INDEX 01 36:43:15
TRACK 11 AUDIO
TITLE “Jasco”
PERFORMER “Sepultura”
INDEX 00 40:51:21
INDEX 01 40:51:27
TRACK 12 AUDIO
TITLE “Itsari”
PERFORMER “Sepultura”
INDEX 00 42:48:74
INDEX 01 42:49:07
TRACK 13 AUDIO
TITLE “Ambush”
PERFORMER “Sepultura”
INDEX 00 47:37:72
INDEX 01 47:38:05
TRACK 14 AUDIO
TITLE “Endangered Species”
PERFORMER “Sepultura”
INDEX 00 52:16:39
INDEX 01 52:17:67
TRACK 15 AUDIO
TITLE “Dictatorshit”
PERFORMER “Sepultura”
INDEX 00 57:37:17
INDEX 01 57:37:40
TRACK 16 AUDIO
TITLE “Procreation (Of The Wicked) (Celtic Frost cover)”
PERFORMER “Sepultura”
INDEX 00 59:01:43
INDEX 01 59:03:15
TRACK 17 AUDIO
TITLE “Symptom Of The Universe (Black Sabbath cover)”
PERFORMER “Sepultura”
INDEX 00 62:41:73
INDEX 01 62:43:00


Leave a Reply

Your email address will not be published. Required fields are marked *

This site uses Akismet to reduce spam. Learn how your comment data is processed.