Sepultura – Roots (Japanese Edition)




No Cover available

Artist: Sepultura
Year: 1996
Genre: Metal
Notes: Discogs
Add. Notes: Japanese Edition
Watch Songs on: YouTube
Cover incl.: Yes
Encoder: FLAC
Bitrate: ~900 kBit/s (44.1 kHz/16 Bit/s)
Log & Cue incl.: Yes/Yes
Size: 621,2 MB
Password: “slam” (without ” “)


All Downloads/Hosters are compatible

Download 1
KatFile.com
Turbobit.net
Rapidgator.net
FileFactory.com
Download 2
KatFile.com
Turbobit.net
Rapidgator.net
FileFactory.com

Tracklist:

1 Roots Bloody Roots 3:32
2 Attitude 4:15
3 Cut-Throat 2:45
4 Ratamahatta 4:30
5 Breed Apart 4:01
6 Straighthate 5:22
7 Spit 2:46
8 Lookaway 5:26
9 Dusted 4:04
10 Born Stubborn 4:08
11 Jasco 1:58
12 Itsári 4:49
13 Ambush 4:40
14 Endangered Species 5:19
15 Dictatorshit 1:26

Japan Bonus Tracks:
16 Chaos B.C. 5:13
17 Canyon Jam 13:15

EAC-Log, CUE-Sheed & NFO:

Click to open spoiler
Exact Audio Copy V0.99 prebeta 5 from 4. May 2009

EAC extraction logfile from 26. September 2010, 6:32

Sepultura / Roots [FEMS-Roadrunner, APCY-8312, Japan]

Used drive : PLEXTOR DVDR PX-716A Adapter: 2 ID: 0

Read mode : Secure
Utilize accurate stream : Yes
Defeat audio cache : Yes
Make use of C2 pointers : No

Read offset correction : 30
Overread into Lead-In and Lead-Out : No
Fill up missing offset samples with silence : Yes
Delete leading and trailing silent blocks : No
Null samples used in CRC calculations : Yes
Used interface : Native Win32 interface for Win NT & 2000

Used output format : User Defined Encoder
Selected bitrate : 128 kBit/s
Quality : High
Add ID3 tag : No
Command line compressor : C:\Program Files (x86)\Exact Audio Copy\Flac\flac.exe
Additional command line options : -T “DATE=%y” -T “GENRE=%m” -8 -V %s

TOC of the extracted CD

Track | Start | Length | Start sector | End sector
———————————————————
1 | 0:00.37 | 3:32.10 | 37 | 15946
2 | 3:32.47 | 4:15.30 | 15947 | 35101
3 | 7:48.02 | 2:44.55 | 35102 | 47456
4 | 10:32.57 | 4:30.58 | 47457 | 67764
5 | 15:03.40 | 4:01.00 | 67765 | 85839
6 | 19:04.40 | 5:21.47 | 85840 | 109961
7 | 24:26.12 | 2:45.63 | 109962 | 122399
8 | 27:12.00 | 5:25.55 | 122400 | 146829
9 | 32:37.55 | 4:03.65 | 146830 | 165119
10 | 36:41.45 | 4:07.45 | 165120 | 183689
11 | 40:49.15 | 1:57.70 | 183690 | 192534
12 | 42:47.10 | 4:48.50 | 192535 | 214184
13 | 47:35.60 | 4:39.22 | 214185 | 235131
14 | 52:15.07 | 5:19.38 | 235132 | 259094
15 | 57:34.45 | 1:24.62 | 259095 | 265456
16 | 58:59.32 | 5:12.40 | 265457 | 288896
17 | 64:11.72 | 13:15.70 | 288897 | 348591

Range status and errors

Selected range

Filename D:\EAC\Sepultura – Roots [FEMS-Roadrunner, APCY-8312, Japan].wav

Peak level 100.0 %
Range quality 99.9 %
Test CRC 4B7D23AD
Copy CRC 4B7D23AD
Copy OK

No errors occurred

AccurateRip summary

Track 1 accurately ripped (confidence 1) [C9F69D70]
Track 2 accurately ripped (confidence 1) [693C2573]
Track 3 accurately ripped (confidence 1) [9137680A]
Track 4 accurately ripped (confidence 1) [3686CC8C]
Track 5 accurately ripped (confidence 1) [18443D8B]
Track 6 accurately ripped (confidence 1) [187BD8D4]
Track 7 accurately ripped (confidence 1) [9B3B403B]
Track 8 accurately ripped (confidence 1) [4B6A0A1C]
Track 9 accurately ripped (confidence 1) [E095DCD5]
Track 10 accurately ripped (confidence 1) [EF8F18A0]
Track 11 accurately ripped (confidence 1) [3775CEFC]
Track 12 accurately ripped (confidence 1) [48FC9201]
Track 13 accurately ripped (confidence 1) [9CBC0B58]
Track 14 accurately ripped (confidence 1) [3A4064BD]
Track 15 accurately ripped (confidence 1) [E927EAB6]
Track 16 accurately ripped (confidence 1) [3B5A08A7]
Track 17 accurately ripped (confidence 1) [FD0F9CCE]

All tracks accurately ripped

End of status report

REM GENRE “Thrash Metal”
REM DATE 1996
REM DISCID F3122711
REM COMMENT “ExactAudioCopy v0.99pb5”
PERFORMER “Sepultura”
TITLE “Roots [FEMS-Roadrunner, APCY-8312, Japan]”
FILE “Sepultura – Roots [FEMS-Roadrunner, APCY-8312, Japan].flac” WAVE
TRACK 01 AUDIO
TITLE “Roots Bloody Roots”
PERFORMER “Sepultura”
INDEX 00 00:00:00
INDEX 01 00:00:37
TRACK 02 AUDIO
TITLE “Attitude”
PERFORMER “Sepultura”
INDEX 01 03:32:47
TRACK 03 AUDIO
TITLE “Cut Throat”
PERFORMER “Sepultura”
INDEX 01 07:48:02
TRACK 04 AUDIO
TITLE “Ratamahatta”
PERFORMER “Sepultura”
INDEX 01 10:32:57
TRACK 05 AUDIO
TITLE “Breed Apart”
PERFORMER “Sepultura”
INDEX 01 15:03:40
TRACK 06 AUDIO
TITLE “Straighthate”
PERFORMER “Sepultura”
INDEX 01 19:04:40
TRACK 07 AUDIO
TITLE “Spit”
PERFORMER “Sepultura”
INDEX 01 24:26:12
TRACK 08 AUDIO
TITLE “Look Away”
PERFORMER “Sepultura”
INDEX 01 27:12:00
TRACK 09 AUDIO
TITLE “Dusted”
PERFORMER “Sepultura”
INDEX 01 32:37:55
TRACK 10 AUDIO
TITLE “Born Stubborn”
PERFORMER “Sepultura”
INDEX 01 36:41:45
TRACK 11 AUDIO
TITLE “Jasco”
PERFORMER “Sepultura”
INDEX 01 40:49:15
TRACK 12 AUDIO
TITLE “Itsari [Live]”
PERFORMER “Sepultura”
INDEX 01 42:47:10
TRACK 13 AUDIO
TITLE “Ambush”
PERFORMER “Sepultura”
INDEX 01 47:35:60
TRACK 14 AUDIO
TITLE “Endangered Species”
PERFORMER “Sepultura”
INDEX 00 52:14:06
INDEX 01 52:15:07
TRACK 15 AUDIO
TITLE “Dictatorshit”
PERFORMER “Sepultura”
INDEX 01 57:34:45
TRACK 16 AUDIO
TITLE “Canyon Jam [Hidden Track]”
PERFORMER “Sepultura”
INDEX 01 58:59:32
TRACK 17 AUDIO
TITLE “Canyon Jam [Hidden Track]”
PERFORMER “Sepultura”
INDEX 00 64:10:38
INDEX 01 64:11:72


Leave a Reply

Your email address will not be published. Required fields are marked *

Enter the text from the image below
 

This site uses Akismet to reduce spam. Learn how your comment data is processed.