Sepultura – Roots (Deluxe Edition)




Artist: Sepultura
Year: 2005
Genre: Rock
Notes: Discogs
Add. Notes: Deluxe Edition
Cover incl.: Yes
Encoder: FLAC
Bitrate: ~1000 kBit/s (44.1 kHz/16 Bit/s)
Log & Cue incl.: Yes
Size: 1027,3 MB
Password: “slam” (without ” “)


All Downloads/Hosters are compatible

Download 1
KatFile.com
Turbobit.net
FileFactory.com
Rapidgator.net
Download 2
KatFile.com
Turbobit.net
FileFactory.com
Rapidgator.net

Tracklist:

1-1 Roots Bloody Roots 3:32
1-2 Attitude 4:15
1-3 Cut-Throat 2:44
1-4 Ratamahatta 4:30
1-5 Breed Apart 4:01
1-6 Straighthate 5:21
1-7 Spit 2:45
1-8 Lookaway 5:26
1-9 Dusted 4:03
1-10 Born Stubborn 4:07
1-11 Jasco 1:57
1-12 Itsári 4:48
1-13 Ambush 4:39
1-14 Endangered Species 5:19
1-15 Dictatorsh*t 1:26
1-16 Untitled 13:15

Disc 2 - Bonus Tracks
2-1 Procreation (Of The Wicked) 3:39
2-2 Mine 6:25
2-3 War 6:40
2-4 Lookaway (Master Vibe Mix) 5:36
2-5 Mine (Andy Wallace Mix) 7:58
2-6 Dusted (Demo) 4:27
2-7 Roots Bloody Roots (Demo) 3:32
2-8 R.D.P. (Demo) 1:15
2-9 Untitled (Demo) 4:14
2-10 Attitude (Live) 5:37
2-11 Roots Bloody Roots (Megawatt Mix 1) 4:01
2-12 Roots Bloody Roots (Megawatt Mix 2) 4:08

EAC-Log, CUE-Sheed & NFO:

Click to open spoiler
Exact Audio Copy V0.99 prebeta 5 from 4. May 2009

Отчёт EAC об извлечении, выполненном 10. сентября 2013, 18:40

Sepultura / Roots

Дисковод: ASUS DRW-22B2L Adapter: 0 ID: 1

Режим чтения : Достоверность
Использование точного потока : Да
Отключение кэша аудио : Да
Использование указателей C2 : Нет

Коррекция смещения при чтении : 6
Способность читать области Lead-in и Lead-out : Нет
Заполнение пропущенных сэмплов тишиной : Да
Удаление блоков с тишиной в начале и конце : Нет
При вычислениях CRC использовались нулевые сэмплы : Да
Интерфейс : Встроенный Win32-интерфейс для Win NT/2000

Выходной формат : Внутренние WAV-операции
Формат сэмплов : 44.100 Гц; 16 бит; стерео

TOC извлечённого CD

Трек | Старт | Длительность | Начальный сектор | Конечный сектор
———————————————————————
1 | 0:00.00 | 3:32.35 | 0 | 15934
2 | 3:32.35 | 4:15.30 | 15935 | 35089
3 | 7:47.65 | 2:44.55 | 35090 | 47444
4 | 10:32.45 | 4:30.33 | 47445 | 67727
5 | 15:03.03 | 4:01.25 | 67728 | 85827
6 | 19:04.28 | 5:21.37 | 85828 | 109939
7 | 24:25.65 | 2:45.48 | 109940 | 122362
8 | 27:11.38 | 5:26.05 | 122363 | 146817
9 | 32:37.43 | 4:03.55 | 146818 | 165097
10 | 36:41.23 | 4:07.55 | 165098 | 183677
11 | 40:49.03 | 1:57.45 | 183678 | 192497
12 | 42:46.48 | 4:48.50 | 192498 | 214147
13 | 47:35.23 | 4:39.47 | 214148 | 235119
14 | 52:14.70 | 5:19.13 | 235120 | 259057
15 | 57:34.08 | 1:26.72 | 259058 | 265579
16 | 59:01.05 | 13:15.48 | 265580 | 325252

Характеристики диапазона извлечения и сообщения об ошибках

Выбранный диапазон

Имя файла D:\rip-flacmusic.ru\Sepultura 1996 1\Sepultura – Roots.wav

Пиковый уровень 100.0 %
Качество диапазона 100.0 %
CRC теста FEA35E1D
CRC копии FEA35E1D
Копирование… OK

Ошибок не произошло

AccurateRip: сводка

Трек 1 точное извлечение (доверие 4) [48DA828F]
Трек 2 точное извлечение (доверие 4) [3269A582]
Трек 3 точное извлечение (доверие 4) [290C19BC]
Трек 4 точное извлечение (доверие 4) [D14EA4FB]
Трек 5 точное извлечение (доверие 4) [8357C90B]
Трек 6 точное извлечение (доверие 4) [8C731CCF]
Трек 7 точное извлечение (доверие 4) [85E27B08]
Трек 8 точное извлечение (доверие 4) [CA93701E]
Трек 9 точное извлечение (доверие 4) [8E696476]
Трек 10 точное извлечение (доверие 4) [49727C74]
Трек 11 точное извлечение (доверие 4) [6D719F86]
Трек 12 точное извлечение (доверие 4) [545EDFD9]
Трек 13 точное извлечение (доверие 4) [44122542]
Трек 14 точное извлечение (доверие 4) [4D279BFA]
Трек 15 точное извлечение (доверие 3) [D34412EF]
Трек 16 точное извлечение (доверие 4) [C8F5D662]

Все треки извлечены точно

Конец отчёта

Exact Audio Copy V0.99 prebeta 5 from 4. May 2009

Отчёт EAC об извлечении, выполненном 11. сентября 2013, 10:07

Sepultura / Roots (CD 2) (Re-Released 2005)

Дисковод: ASUS DRW-22B2L Adapter: 0 ID: 1

Режим чтения : Достоверность
Использование точного потока : Да
Отключение кэша аудио : Да
Использование указателей C2 : Нет

Коррекция смещения при чтении : 6
Способность читать области Lead-in и Lead-out : Нет
Заполнение пропущенных сэмплов тишиной : Да
Удаление блоков с тишиной в начале и конце : Нет
При вычислениях CRC использовались нулевые сэмплы : Да
Интерфейс : Встроенный Win32-интерфейс для Win NT/2000

Выходной формат : Внутренние WAV-операции
Формат сэмплов : 44.100 Гц; 16 бит; стерео

TOC извлечённого CD

Трек | Старт | Длительность | Начальный сектор | Конечный сектор
———————————————————————
1 | 0:00.00 | 3:39.46 | 0 | 16470
2 | 3:39.46 | 6:25.53 | 16471 | 45398
3 | 10:05.24 | 6:40.43 | 45399 | 75441
4 | 16:45.67 | 5:36.74 | 75442 | 100715
5 | 22:22.66 | 7:58.67 | 100716 | 136632
6 | 30:21.58 | 4:27.03 | 136633 | 156660
7 | 34:48.61 | 3:32.56 | 156661 | 172616
8 | 38:21.42 | 1:15.31 | 172617 | 178272
9 | 39:36.73 | 4:14.62 | 178273 | 197384
10 | 43:51.60 | 5:37.43 | 197385 | 222702
11 | 49:29.28 | 4:01.00 | 222703 | 240777
12 | 53:30.28 | 4:08.67 | 240778 | 259444

Характеристики диапазона извлечения и сообщения об ошибках

Выбранный диапазон

Имя файла D:\rip-flacmusic.ru\Sepultura 1996 2\Sepultura – Roots (CD 2) (Re-Released 2005).wav

Пиковый уровень 100.0 %
Качество диапазона 100.0 %
CRC теста 3CB270B1
CRC копии 3CB270B1
Копирование… OK

Ошибок не произошло

AccurateRip: сводка

Трек 1 точное извлечение (доверие 4) [625F96E9]
Трек 2 точное извлечение (доверие 4) [AB3159C4]
Трек 3 точное извлечение (доверие 4) [006C65B2]
Трек 4 точное извлечение (доверие 4) [D59CDEC0]
Трек 5 точное извлечение (доверие 4) [7E5C498A]
Трек 6 точное извлечение (доверие 4) [70244658]
Трек 7 точное извлечение (доверие 4) [D689A8FF]
Трек 8 точное извлечение (доверие 4) [A5B6DA2F]
Трек 9 точное извлечение (доверие 4) [5CF53069]
Трек 10 точное извлечение (доверие 4) [3F1E07D9]
Трек 11 точное извлечение (доверие 4) [9941E15F]
Трек 12 точное извлечение (доверие 4) [1C7909FE]

Все треки извлечены точно

Конец отчёта

REM GENRE “Thrash Metal”
REM DATE 1996
REM DISCID E610F010
REM COMMENT “ExactAudioCopy v0.99pb5”
PERFORMER “Sepultura”
TITLE “Roots”
FILE “Sepultura – Roots.flac” WAVE
TRACK 01 AUDIO
TITLE “Roots Bloody Roots”
PERFORMER “Sepultura”
INDEX 01 00:00:00
TRACK 02 AUDIO
TITLE “Attitude”
PERFORMER “Sepultura”
INDEX 01 03:32:35
TRACK 03 AUDIO
TITLE “Cut-Throat”
PERFORMER “Sepultura”
INDEX 01 07:47:65
TRACK 04 AUDIO
TITLE “Ratamahatta”
PERFORMER “Sepultura”
INDEX 01 10:32:45
TRACK 05 AUDIO
TITLE “Breed Apart”
PERFORMER “Sepultura”
INDEX 01 15:03:03
TRACK 06 AUDIO
TITLE “Straighthate”
PERFORMER “Sepultura”
INDEX 01 19:04:28
TRACK 07 AUDIO
TITLE “Spit”
PERFORMER “Sepultura”
INDEX 01 24:25:65
TRACK 08 AUDIO
TITLE “Lookaway”
PERFORMER “Sepultura”
INDEX 01 27:11:38
TRACK 09 AUDIO
TITLE “Dusted”
PERFORMER “Sepultura”
INDEX 01 32:37:43
TRACK 10 AUDIO
TITLE “Born Stubborn”
PERFORMER “Sepultura”
INDEX 01 36:41:23
TRACK 11 AUDIO
TITLE “Jasco”
PERFORMER “Sepultura”
INDEX 01 40:49:03
TRACK 12 AUDIO
TITLE “Itsari”
PERFORMER “Sepultura”
INDEX 01 42:46:48
TRACK 13 AUDIO
TITLE “Ambush”
PERFORMER “Sepultura”
INDEX 01 47:35:23
TRACK 14 AUDIO
TITLE “Endangered Species”
PERFORMER “Sepultura”
INDEX 00 52:13:43
INDEX 01 52:14:70
TRACK 15 AUDIO
TITLE “Dictatorshit”
PERFORMER “Sepultura”
INDEX 01 57:34:08
TRACK 16 AUDIO
TITLE “Canyon Jam”
PERFORMER “Sepultura”
INDEX 00 58:58:10
INDEX 01 59:01:05

REM GENRE “Death/Thrash Metal ”
REM DATE 1996
REM DISCID 860D830C
REM COMMENT “ExactAudioCopy v0.99pb5”
PERFORMER “Sepultura”
TITLE “Roots (CD 2) (Re-Released 2005) ”
FILE “Sepultura – Roots (CD 2) (Re-Released 2005).flac” WAVE
TRACK 01 AUDIO
TITLE “Procreation (Of The Wicked) (Celtic Frost Cover)”
PERFORMER “Sepultura”
INDEX 01 00:00:00
TRACK 02 AUDIO
TITLE “Mine (Feat. Mike Patton)”
PERFORMER “Sepultura”
INDEX 01 03:39:46
TRACK 03 AUDIO
TITLE “War (Bob Marley Cover)”
PERFORMER “Sepultura”
INDEX 01 10:05:24
TRACK 04 AUDIO
TITLE “Lookaway (Master Vibe Mix)”
PERFORMER “Sepultura”
INDEX 00 16:44:57
INDEX 01 16:45:67
TRACK 05 AUDIO
TITLE “Mine (Andy Wallace Mix)”
PERFORMER “Sepultura”
INDEX 01 22:22:66
TRACK 06 AUDIO
TITLE “Dusted (Demo)”
PERFORMER “Sepultura”
INDEX 00 30:20:14
INDEX 01 30:21:58
TRACK 07 AUDIO
TITLE “Roots Bloody Roots (Demo)”
PERFORMER “Sepultura”
INDEX 01 34:48:61
TRACK 08 AUDIO
TITLE “R.D.P. (Demo)”
PERFORMER “Sepultura”
INDEX 01 38:21:42
TRACK 09 AUDIO
TITLE “Untitled (Demo)”
PERFORMER “Sepultura”
INDEX 01 39:36:73
TRACK 10 AUDIO
TITLE “Attitude (Live)”
PERFORMER “Sepultura”
INDEX 01 43:51:60
TRACK 11 AUDIO
TITLE “Roots Bloody Roots (Megawatt Mix 1)”
PERFORMER “Sepultura”
INDEX 00 49:27:31
INDEX 01 49:29:28
TRACK 12 AUDIO
TITLE “Roots Bloody Roots (Megawatt Mix 2)”
PERFORMER “Sepultura”
INDEX 01 53:30:28


Leave a Reply

Your email address will not be published. Required fields are marked *

This site uses Akismet to reduce spam. Learn how your comment data is processed.