Sepultura – Roots




Artist: Sepultura
Year: 1996
Genre: Metal
Notes: Discogs
Add. Notes:
Cover incl.: Yes
Encoder: FLAC
Bitrate: ~900 kBit/s (44.1 kHz/16 Bit/s)
Log & Cue incl.: Yes
Size: 563,5 MB
Password: “slam” (without ” “)


All Downloads/Hosters are compatible

Download 1
KatFile.com
Turbobit.net
FileFactory.com
Rapidgator.net
Download 2
KatFile.com
Turbobit.net
FileFactory.com
Rapidgator.net

Tracklist:

1 Roots Bloody Roots 3:32
2 Attitude 4:15
3 Cut-Throat 2:45
4 Ratamahatta 4:30
5 Breed Apart 4:01
6 Straighthate 5:22
7 Spit 2:46
8 Lookaway 5:26
9 Dusted 4:04
10 Born Stubborn 4:08
11 Jasco 1:58
12 Itsári 4:49
13 Ambush 4:40
14 Endangered Species 5:19
15 Dictatorshit 1:26
16 Canyon Jam [Unlisted] 13:15

EAC-Log, CUE-Sheed & NFO:

Click to open spoiler
Exact Audio Copy V1.0 beta 1 from 15. November 2010

EAC extraction logfile from 18. March 2012, 14:00

Sepultura / Roots

Used drive : ATAPI iHAS322 8 Adapter: 4 ID: 0

Read mode : Secure
Utilize accurate stream : Yes
Defeat audio cache : Yes
Make use of C2 pointers : No

Read offset correction : 6
Overread into Lead-In and Lead-Out : No
Fill up missing offset samples with silence : Yes
Delete leading and trailing silent blocks : No
Null samples used in CRC calculations : Yes
Used interface : Native Win32 interface for Win NT & 2000

Used output format : Internal WAV Routines
Sample format : 44.100 Hz; 16 Bit; Stereo

TOC of the extracted CD

Track | Start | Length | Start sector | End sector
———————————————————
1 | 0:00.32 | 3:32.60 | 32 | 15991
2 | 3:33.17 | 4:15.30 | 15992 | 35146
3 | 7:48.47 | 2:44.55 | 35147 | 47501
4 | 10:33.27 | 4:30.48 | 47502 | 67799
5 | 15:04.00 | 4:01.10 | 67800 | 85884
6 | 19:05.10 | 5:21.47 | 85885 | 110006
7 | 24:26.57 | 2:45.63 | 110007 | 122444
8 | 27:12.45 | 5:25.55 | 122445 | 146874
9 | 32:38.25 | 4:03.60 | 146875 | 165159
10 | 36:42.10 | 4:07.50 | 165160 | 183734
11 | 40:49.60 | 1:57.62 | 183735 | 192571
12 | 42:47.47 | 4:48.50 | 192572 | 214221
13 | 47:36.22 | 4:39.30 | 214222 | 235176
14 | 52:15.52 | 5:19.30 | 235177 | 259131
15 | 57:35.07 | 1:26.55 | 259132 | 265636
16 | 59:01.62 | 13:16.45 | 265637 | 325381

Range status and errors

Selected range

Filename F:\Netlab\roots\Sepultura – Roots.wav

Peak level 100.0 %
Extraction speed 1.5 X
Range quality 99.9 %
Test CRC 3FA88170
Copy CRC 3FA88170
Copy OK

No errors occurred

AccurateRip summary

Track 1 accurately ripped (confidence 2) [2E30AB20]
Track 2 accurately ripped (confidence 2) [3EDB2EF9]
Track 3 accurately ripped (confidence 2) [C2AC7F12]
Track 4 accurately ripped (confidence 2) [49622F8B]
Track 5 accurately ripped (confidence 2) [A35EEC52]
Track 6 accurately ripped (confidence 2) [3CB99406]
Track 7 accurately ripped (confidence 2) [F0F1A70E]
Track 8 accurately ripped (confidence 2) [5E95AAD0]
Track 9 accurately ripped (confidence 2) [38B90B11]
Track 10 accurately ripped (confidence 2) [DFA12D55]
Track 11 accurately ripped (confidence 2) [2A2DEB6D]
Track 12 accurately ripped (confidence 2) [898CE8A1]
Track 13 accurately ripped (confidence 2) [25662A2D]
Track 14 accurately ripped (confidence 2) [751C9B45]
Track 15 accurately ripped (confidence 2) [9027134A]
Track 16 accurately ripped (confidence 2) [2292B6CD]

All tracks accurately ripped

End of status report

==== Log checksum 743CE378F4DBFDE628C600F83F6D9C0DAC0024F273F819F5CF26A928066C201B ====

REM GENRE “Thrash Metal”
REM DATE 1996
REM DISCID E110F210
REM COMMENT “ExactAudioCopy v1.0b1”
PERFORMER “Sepultura”
TITLE “Roots”
FILE “Sepultura – Roots.flac” WAVE
TRACK 01 AUDIO
TITLE “Roots Bloody Roots”
PERFORMER “Sepultura”
INDEX 00 00:00:00
INDEX 01 00:00:32
TRACK 02 AUDIO
TITLE “Attitude”
PERFORMER “Sepultura”
INDEX 01 03:33:17
TRACK 03 AUDIO
TITLE “Cut-Throat”
PERFORMER “Sepultura”
INDEX 01 07:48:47
TRACK 04 AUDIO
TITLE “Ratamahatta”
PERFORMER “Sepultura”
INDEX 01 10:33:27
TRACK 05 AUDIO
TITLE “Breed Apart”
PERFORMER “Sepultura”
INDEX 01 15:04:00
TRACK 06 AUDIO
TITLE “Straighthate”
PERFORMER “Sepultura”
INDEX 01 19:05:10
TRACK 07 AUDIO
TITLE “Spit”
PERFORMER “Sepultura”
INDEX 01 24:26:57
TRACK 08 AUDIO
TITLE “Lookaway”
PERFORMER “Sepultura”
INDEX 01 27:12:45
TRACK 09 AUDIO
TITLE “Dusted”
PERFORMER “Sepultura”
INDEX 01 32:38:25
TRACK 10 AUDIO
TITLE “Born Stubborn”
PERFORMER “Sepultura”
INDEX 01 36:42:10
TRACK 11 AUDIO
TITLE “Jasco”
PERFORMER “Sepultura”
INDEX 01 40:49:60
TRACK 12 AUDIO
TITLE “Itsari”
PERFORMER “Sepultura”
INDEX 01 42:47:47
TRACK 13 AUDIO
TITLE “Ambush”
PERFORMER “Sepultura”
INDEX 01 47:36:22
TRACK 14 AUDIO
TITLE “Endangered Species”
PERFORMER “Sepultura”
INDEX 00 52:14:50
INDEX 01 52:15:52
TRACK 15 AUDIO
TITLE “Dictatorshit”
PERFORMER “Sepultura”
INDEX 01 57:35:07
TRACK 16 AUDIO
TITLE “Canyon Jam”
PERFORMER “Sepultura”
INDEX 00 58:59:17
INDEX 01 59:01:62


Leave a Reply

Your email address will not be published. Required fields are marked *

This site uses Akismet to reduce spam. Learn how your comment data is processed.