Sepultura – Roorback (Enhanced)




No Cover available

Artist: Sepultura
Year: 2003
Genre: Metal
Notes: Discogs
Add. Notes: Enhanced
Watch Songs on: YouTube
Cover incl.: Yes
Encoder: FLAC
Bitrate: ~900 kBit/s (44.1 kHz/16 Bit/s)
Log & Cue incl.: Yes/Yes
Size: 661,68 MB
Password: “slam” (without ” “)


All Downloads/Hosters are compatible

Download 1
KatFile.com
Turbobit.net
Rapidgator.net
FileFactory.com
Download 2
KatFile.com
Turbobit.net
Rapidgator.net
FileFactory.com

Tracklist:

Roorback
1-1 Come Back Alive 3:05
1-2 Godless 4:21
1-3 Apes Of God 3:36
1-4 More Of The Same 3:58
1-5 Urge 3:16
1-6 Corrupted 2:33
1-7 As It Is 4:26
1-8 Mind War 2:59
1-9 Leech 2:24
1-10 The Rift 2:56
1-11 Bottomed Out 4:35
1-12 Activist 1:53
1-13 Outro 3:06

Revolusongs
2-1 Messiah 3:26
2-2 Angel 5:14
2-3 Black Steel In The Hour Of Chaos 4:02
2-4 Mongoloid 2:35
2-5 Mountain Song 3:27
2-6 Bullet The Blue Sky 4:34
2-7 Piranha 3:40

Video Bullet The Blue Sky 

EAC-Log, CUE-Sheed & NFO:

Click to open spoiler
Exact Audio Copy V1.0 beta 3 from 29. August 2011

EAC extraction logfile from 9. June 2014, 16:10

Sepultura / Revolusongs [Steamhammer, SPV 092-74830 DCD-E, Germany]

Used drive : PIONEER DVD-RW DVR-112D Adapter: 1 ID: 0

Read mode : Secure
Utilize accurate stream : Yes
Defeat audio cache : Yes
Make use of C2 pointers : No

Read offset correction : 48
Overread into Lead-In and Lead-Out : No
Fill up missing offset samples with silence : Yes
Delete leading and trailing silent blocks : No
Null samples used in CRC calculations : Yes
Used interface : Installed external ASPI interface

Used output format : User Defined Encoder
Selected bitrate : 1024 kBit/s
Quality : High
Add ID3 tag : No
Command line compressor : C:\Program Files\Exact Audio Copy\FLAC\FLAC.EXE
Additional command line options : -V -8 -T “Date=%year%” -T “Genre=%genre%” %source%

TOC of the extracted CD

Track | Start | Length | Start sector | End sector
———————————————————
1 | 0:00.00 | 3:26.31 | 0 | 15480
2 | 3:26.31 | 5:13.74 | 15481 | 39029
3 | 8:40.30 | 4:02.47 | 39030 | 57226
4 | 12:43.02 | 2:35.62 | 57227 | 68913
5 | 15:18.64 | 3:28.58 | 68914 | 84571
6 | 18:47.47 | 4:34.65 | 84572 | 105186
7 | 23:22.37 | 3:39.72 | 105187 | 121683
8 | 29:34.34 | 8:06.20 | 133084 | 169553

Range status and errors

Selected range

Filename C:\CDRip by Deminbek\Sepultura – Revolusongs [Steamhammer, SPV 092-74830 DCD-E, Germany].wav

Peak level 98.4 %
Extraction speed 6.1 X
Range quality 99.9 %
Test CRC 752861A7
Copy CRC 752861A7
Copy OK

No errors occurred

AccurateRip summary

Track 1 accurately ripped (confidence 25) [29310082] (AR v2)
Track 2 accurately ripped (confidence 25) [927B8484] (AR v2)
Track 3 accurately ripped (confidence 25) [2676C18E] (AR v2)
Track 4 accurately ripped (confidence 25) [2364373D] (AR v2)
Track 5 accurately ripped (confidence 25) [5767E2F2] (AR v2)
Track 6 accurately ripped (confidence 25) [EFF3A475] (AR v2)
Track 7 accurately ripped (confidence 25) [5D12DDFE] (AR v2)

All tracks accurately ripped

End of status report

—- CUETools DB Plugin V2.1.4

[CTDB TOCID: 5pD4dJS0JDJqpVslAA_SumX5s3s-] found
Submit result: 5pD4dJS0JDJqpVslAA_SumX5s3s- has been confirmed
Track | CTDB Status
1 | (19/19) Accurately ripped
2 | (18/19) Accurately ripped, or (1/19) differs in 10248 samples @05:13:65-05:13:73
3 | (19/19) Accurately ripped
4 | (19/19) Accurately ripped
5 | (19/19) Accurately ripped
6 | (19/19) Accurately ripped
7 | (19/19) Accurately ripped

==== Log checksum A1F2A9348404C47031A32FEECDA0283B37FCC4F04C5EF6F37AA2604233659456 ====

Exact Audio Copy V1.0 beta 3 from 29. August 2011

EAC extraction logfile from 9. June 2014, 16:32

Sepultura / Roorback [Steamhammer, SPV 092-74830 DCD-E, Germany]

Used drive : PIONEER DVD-RW DVR-112D Adapter: 1 ID: 0

Read mode : Secure
Utilize accurate stream : Yes
Defeat audio cache : Yes
Make use of C2 pointers : No

Read offset correction : 48
Overread into Lead-In and Lead-Out : No
Fill up missing offset samples with silence : Yes
Delete leading and trailing silent blocks : No
Null samples used in CRC calculations : Yes
Used interface : Installed external ASPI interface

Used output format : User Defined Encoder
Selected bitrate : 1024 kBit/s
Quality : High
Add ID3 tag : No
Command line compressor : C:\Program Files\Exact Audio Copy\FLAC\FLAC.EXE
Additional command line options : -V -8 -T “Date=%year%” -T “Genre=%genre%” %source%

TOC of the extracted CD

Track | Start | Length | Start sector | End sector
———————————————————
1 | 0:00.00 | 3:06.38 | 0 | 13987
2 | 3:06.38 | 4:21.54 | 13988 | 33616
3 | 7:28.17 | 3:36.00 | 33617 | 49816
4 | 11:04.17 | 3:58.48 | 49817 | 67714
5 | 15:02.65 | 3:16.63 | 67715 | 82477
6 | 18:19.53 | 2:32.73 | 82478 | 93950
7 | 20:52.51 | 4:26.54 | 93951 | 113954
8 | 25:19.30 | 2:59.47 | 113955 | 127426
9 | 28:19.02 | 2:24.27 | 127427 | 138253
10 | 30:43.29 | 2:56.24 | 138254 | 151477
11 | 33:39.53 | 4:35.49 | 151478 | 172151
12 | 38:15.27 | 1:53.34 | 172152 | 180660
13 | 40:08.61 | 11:37.02 | 180661 | 232937

Range status and errors

Selected range

Filename C:\CDRip by Deminbek\Sepultura – Roorback [Steamhammer, SPV 092-74830 DCD-E, Germany].wav

Peak level 100.0 %
Extraction speed 6.3 X
Range quality 99.9 %
Test CRC 64E0CE87
Copy CRC 64E0CE87
Copy OK

No errors occurred

AccurateRip summary

Track 1 accurately ripped (confidence 24) [2B96B0C4] (AR v2)
Track 2 accurately ripped (confidence 24) [15938F36] (AR v2)
Track 3 accurately ripped (confidence 24) [2FBBC45E] (AR v2)
Track 4 accurately ripped (confidence 24) [FAA4C8DB] (AR v2)
Track 5 accurately ripped (confidence 24) [0CD6DA43] (AR v2)
Track 6 accurately ripped (confidence 24) [3387AB74] (AR v2)
Track 7 accurately ripped (confidence 24) [9DF29561] (AR v2)
Track 8 accurately ripped (confidence 24) [C4B07AF1] (AR v2)
Track 9 accurately ripped (confidence 24) [9AFB1C6F] (AR v2)
Track 10 accurately ripped (confidence 24) [9DE8FF80] (AR v2)
Track 11 accurately ripped (confidence 24) [744345D9] (AR v2)
Track 12 accurately ripped (confidence 24) [DA5323E3] (AR v2)
Track 13 accurately ripped (confidence 24) [A7FCFE15] (AR v2)

All tracks accurately ripped

End of status report

—- CUETools DB Plugin V2.1.4

[CTDB TOCID: 3wUg3b8WyadzcG5oHPfT8j6neSc-] found
Submit result: 3wUg3b8WyadzcG5oHPfT8j6neSc- has been confirmed
Track | CTDB Status
1 | (17/17) Accurately ripped
2 | (15/17) Accurately ripped, or (1/17) differs in 10570 samples @04:21:44-04:21:53
3 | (17/17) Accurately ripped
4 | (17/17) Accurately ripped
5 | (17/17) Accurately ripped
6 | (17/17) Accurately ripped
7 | (17/17) Accurately ripped
8 | (17/17) Accurately ripped
9 | (17/17) Accurately ripped
10 | (17/17) Accurately ripped
11 | (17/17) Accurately ripped
12 | (17/17) Accurately ripped
13 | (15/17) Accurately ripped

==== Log checksum DA4912C07F707B2FF4B16B6FCB1A4E3E047E398F7EC560A75D632F096A36F0A6 ====

REM GENRE “Thrash Metal”
REM DATE 2002
REM DISCID 5D08D408
REM COMMENT “ExactAudioCopy v1.0b3”
PERFORMER “Sepultura”
TITLE “Revolusongs [Steamhammer, SPV 092-74830 DCD-E, Germany]”
FILE “Sepultura – Revolusongs [Steamhammer, SPV 092-74830 DCD-E, Germany].flac” WAVE
TRACK 01 AUDIO
TITLE “Messiah”
PERFORMER “Sepultura”
ISRC DEA450301950
INDEX 01 00:00:00
TRACK 02 AUDIO
TITLE “Angel”
PERFORMER “Sepultura”
ISRC DEA450301960
INDEX 01 03:26:31
TRACK 03 AUDIO
TITLE “Black Steel in the Hour of Chaos”
PERFORMER “Sepultura”
ISRC DEA450301970
INDEX 01 08:40:30
TRACK 04 AUDIO
TITLE “Mongoloid”
PERFORMER “Sepultura”
ISRC DEA450301980
INDEX 01 12:43:02
TRACK 05 AUDIO
TITLE “Mountain Song”
PERFORMER “Sepultura”
ISRC DEA450301990
INDEX 01 15:18:64
TRACK 06 AUDIO
TITLE “Bullet the Blue Sky”
PERFORMER “Sepultura”
ISRC DEA450302000
INDEX 01 18:47:47
TRACK 07 AUDIO
TITLE “Piranha”
PERFORMER “Sepultura”
ISRC DEA450302010
INDEX 01 23:22:37

REM GENRE “Thrash Metal”
REM DATE 2003
REM DISCID 8E0C210D
REM COMMENT “ExactAudioCopy v1.0b3”
PERFORMER “Sepultura”
TITLE “Roorback [Steamhammer, SPV 092-74830 DCD-E, Germany]”
FILE “Sepultura – Roorback [Steamhammer, SPV 092-74830 DCD-E, Germany].flac” WAVE
TRACK 01 AUDIO
TITLE “Come Back Alive”
PERFORMER “Sepultura”
ISRC DEA450301820
FLAGS DCP
INDEX 01 00:00:00
TRACK 02 AUDIO
TITLE “Godless”
PERFORMER “Sepultura”
ISRC DEA450301830
FLAGS DCP
INDEX 01 03:06:38
TRACK 03 AUDIO
TITLE “Apes Of God”
PERFORMER “Sepultura”
ISRC DEA450301840
FLAGS DCP
INDEX 01 07:28:17
TRACK 04 AUDIO
TITLE “More Of The Same”
PERFORMER “Sepultura”
ISRC DEA450301850
FLAGS DCP
INDEX 01 11:04:17
TRACK 05 AUDIO
TITLE “Urge”
PERFORMER “Sepultura”
ISRC DEA450301860
FLAGS DCP
INDEX 01 15:02:65
TRACK 06 AUDIO
TITLE “Corrupted”
PERFORMER “Sepultura”
ISRC DEA450301870
FLAGS DCP
INDEX 00 18:19:22
INDEX 01 18:19:53
TRACK 07 AUDIO
TITLE “As It Is”
PERFORMER “Sepultura”
ISRC DEA450301880
FLAGS DCP
INDEX 00 20:52:42
INDEX 01 20:52:51
TRACK 08 AUDIO
TITLE “Mind War”
PERFORMER “Sepultura”
ISRC DEA450301890
FLAGS DCP
INDEX 01 25:19:30
TRACK 09 AUDIO
TITLE “Leech”
PERFORMER “Sepultura”
ISRC DEA450301900
FLAGS DCP
INDEX 01 28:19:02
TRACK 10 AUDIO
TITLE “The Rift”
PERFORMER “Sepultura”
ISRC DEA450301910
FLAGS DCP
INDEX 01 30:43:29
TRACK 11 AUDIO
TITLE “Bottomed Out”
PERFORMER “Sepultura”
ISRC DEA450301920
FLAGS DCP
INDEX 01 33:39:53
TRACK 12 AUDIO
TITLE “Activist”
PERFORMER “Sepultura”
ISRC DEA450301930
FLAGS DCP
INDEX 01 38:15:27
TRACK 13 AUDIO
TITLE “Outro”
PERFORMER “Sepultura”
ISRC DEA450301940
FLAGS DCP
INDEX 01 40:08:61


0

Publication author

offline 15 hours

Chaos

3
Comments: 4Publics: 3418Registration: 02-02-2019
Spread the Download

Leave a Reply

Your email address will not be published. Required fields are marked *

Enter the text from the image below
 

This site uses Akismet to reduce spam. Learn how your comment data is processed.