Sepultura – Quadra




No Cover available

Artist: Sepultura
Year: 2020
Genre: Metal
Notes: Discogs
Add. Notes:
Watch Songs on: YouTube
Cover incl.: No
Encoder: FLAC
Bitrate: ~1000 kBit/s (44.1 kHz/16 Bit/s)
Log & Cue incl.: Yes/Yes
Size: 364,8 MB
Password: “slam” (without ” “)


All Downloads/Hosters are compatible

Download 1
KatFile.com
Turbobit.net
Rapidgator.net
FileFactory.com
Download 2
KatFile.com
Turbobit.net
Rapidgator.net
FileFactory.com

Tracklist:

1 Isolation 
2 Means To An End 
3 Last Time 
4 Captial Enslavement 
5 Ali 
6 Raging Void 
7 Guardians Of Earth 
8 The Pentagram 
9 Autem 
10 Quadra 
11 Agony Of Defeat 
12 Fear, Pain, Chaos, Suffering

EAC-Log, CUE-Sheed & NFO:

Click to open spoiler
REM GENRE Thrash Metal
REM DATE 2020-02-07
PERFORMER “Sepultura”
TITLE “Quadra”
FILE “01 Isolation.flac” WAVE
TRACK 01 AUDIO
TITLE “Isolation”
PERFORMER “Sepultura”
INDEX 01 00:00:00
FILE “02 Means to an End.flac” WAVE
TRACK 02 AUDIO
TITLE “Means to an End”
PERFORMER “Sepultura”
INDEX 01 00:00:00
FILE “03 Last Time.flac” WAVE
TRACK 03 AUDIO
TITLE “Last Time”
PERFORMER “Sepultura”
INDEX 01 00:00:00
FILE “04 Capital Enslavement.flac” WAVE
TRACK 04 AUDIO
TITLE “Capital Enslavement”
PERFORMER “Sepultura”
INDEX 01 00:00:00
FILE “05 Ali.flac” WAVE
TRACK 05 AUDIO
TITLE “Ali”
PERFORMER “Sepultura”
INDEX 01 00:00:00
FILE “06 Raging Void.flac” WAVE
TRACK 06 AUDIO
TITLE “Raging Void”
PERFORMER “Sepultura”
INDEX 01 00:00:00
FILE “07 Guardians of Earth.flac” WAVE
TRACK 07 AUDIO
TITLE “Guardians of Earth”
PERFORMER “Sepultura”
INDEX 01 00:00:00
FILE “08 The Pentagram.flac” WAVE
TRACK 08 AUDIO
TITLE “The Pentagram”
PERFORMER “Sepultura”
INDEX 01 00:00:00
FILE “09 Autem.flac” WAVE
TRACK 09 AUDIO
TITLE “Autem”
PERFORMER “Sepultura”
INDEX 01 00:00:00
FILE “10 Quadra.flac” WAVE
TRACK 10 AUDIO
TITLE “Quadra”
PERFORMER “Sepultura”
INDEX 01 00:00:00
FILE “11 Agony of Defeat.flac” WAVE
TRACK 11 AUDIO
TITLE “Agony of Defeat”
PERFORMER “Sepultura”
INDEX 01 00:00:00
FILE “12 Fear – Pain – Chaos – Suffering.flac” WAVE
TRACK 12 AUDIO
TITLE “Fear – Pain – Chaos – Suffering”
PERFORMER “Sepultura”
INDEX 01 00:00:00

———————–

DON’T MODIFY THIS FILE

———————–

PERFORMER: auCDtect Task Manager, ver. 1.6.0 RC1 build 1.6.0.1
Copyright (c) 2008-2010 y-soft. All rights reserved
http://y-soft.org

ANALYZER: auCDtect: CD records authenticity detector, version 0.8.2
Copyright (c) 2004 Oleg Berngardt. All rights reserved.
Copyright (c) 2004 Alexander Djourik. All rights reserved.

FILE: 03 Last Time.flac
Size: 34325021 Hash: CE9F61BAD398291752FD79D367929A9C Accuracy: -m0
Conclusion: MPEG 79%
Signature: E93F5FCD1D9FAD309ADBEE8853811EEEA8BF91C7
FILE: 02 Means to an End.flac
Size: 35804807 Hash: 3D83BFFA067BB8AA045FFEE64B32AAD3 Accuracy: -m0
Conclusion: MPEG 95%
Signature: 7998E799463FAD4C84E091AAD18EFFCCE6B53E93
FILE: 01 Isolation.flac
Size: 37168274 Hash: F8C95433B573A51DA39206CC73F06741 Accuracy: -m0
Conclusion: MPEG 79%
Signature: DFEE923DE59518C9F4CF744EE01A1F315D3ABA51
FILE: 12 Fear – Pain – Chaos – Suffering.flac
Size: 28185297 Hash: EF202CA4B32A3FCBA8F8F2BC04964733 Accuracy: -m0
Conclusion: CDDA 100%
Signature: 59913411B8627414DC2806B270303529E6016432
FILE: 11 Agony of Defeat.flac
Size: 42412022 Hash: 185324428E0DB889C2FC411BF28E59F1 Accuracy: -m0
Conclusion: CDDA 100%
Signature: 1398F43D8958E8C83486E2DF753631F7F0BBF2B1
FILE: 10 Quadra.flac
Size: 3882387 Hash: AAE4B32D0A340B1ECAF94B5202A1EC80 Accuracy: -m0
Conclusion: CDDA 100%
Signature: 754DF62889461A7DF2413127533FB3B10A1AB554
FILE: 09 Autem.flac
Size: 31090039 Hash: 25D5B865ABD25719134F8E2796092202 Accuracy: -m0
Conclusion: CDDA 100%
Signature: 7914FE019CF637FAB485ABDC0E0D9DC30CDA357C
FILE: 08 The Pentagram.flac
Size: 41680500 Hash: C47B9FC2B16AFD01DA2221980FAD88A4 Accuracy: -m0
Conclusion: MPEG 91%
Signature: E817C394BEC5BAEBDAFC2DF7814AB9B9CD623B51
FILE: 07 Guardians of Earth.flac
Size: 37604131 Hash: 870B54227036DD12B163061A652A1A75 Accuracy: -m0
Conclusion: CDDA 100%
Signature: 02EA6F85FB725B796715AEED71DA54B6D767FAFA
FILE: 06 Raging Void.flac
Size: 30348546 Hash: 95A739EC9A9AAB1DE9FB31CD9BB1C060 Accuracy: -m0
Conclusion: CDDA 100%
Signature: CD5B1E532B6E6173D9265E5E7A6FE60A7EF6DB04
FILE: 05 Ali.flac
Size: 32938939 Hash: E4947825E3CA4F7B352827FA9B223495 Accuracy: -m0
Conclusion: CDDA 100%
Signature: 057027DC784D0C1DC55B224204834711B41553EA
FILE: 04 Capital Enslavement.flac
Size: 27081458 Hash: A15972905B60C9CE3DDDE455FF9E564B Accuracy: -m0
Conclusion: CDDA 100%
Signature: D04141FD804327A31CF5EEC68E3C73FBD7DA89AA


0

Publication author

offline 15 hours

Chaos

3
Comments: 4Publics: 3418Registration: 02-02-2019
Spread the Download

Leave a Reply

Your email address will not be published. Required fields are marked *

Enter the text from the image below
 

This site uses Akismet to reduce spam. Learn how your comment data is processed.