Sepultura – Primitive Future




Artist: Sepultura
Year: 1990
Genre: Metal
Notes: Discogs
Add. Notes:
Cover incl.: Yes
Encoder: FLAC
Bitrate: ~900 kBit/s (44.1 kHz/16 Bit/s)
Log & Cue incl.: Yes
Size: 352 MB
Password: “slam” (without ” “)


All Downloads/Hosters are compatible

Download 1
KatFile.com
Turbobit.net
Rapidgator.net
Download 2
KatFile.com
Turbobit.net
Rapidgator.net

Tracklist:

1. Primitive Future
2. Inner Self
3. Mass Hypnosis
4. Troops Of Doom
5. Stronger Than Hate
6. Guitar Solo
7. Inquisition Symphony
8. Antichrist
9. Slaves Of Pain
10. Beneath The Remains
11. From The Past Comes The 
Storms
12. Bodies
13. Protest And Survive

EAC-Log, CUE-Sheed & NFO:

Click to open spoiler
Exact Audio Copy V1.0 beta 3 from 29. August 2011

EAC extraction logfile from 25. June 2014, 14:03

Sepultura / Primitive Future

Used drive : PIONEER DVD-RW DVR-215 Adapter: 0 ID: 0

Read mode : Secure
Utilize accurate stream : Yes
Defeat audio cache : Yes
Make use of C2 pointers : No

Read offset correction : 48
Overread into Lead-In and Lead-Out : No
Fill up missing offset samples with silence : Yes
Delete leading and trailing silent blocks : No
Null samples used in CRC calculations : Yes
Used interface : Native Win32 interface for Win NT & 2000

Used output format : User Defined Encoder
Selected bitrate : 1024 kBit/s
Quality : High
Add ID3 tag : No
Command line compressor : C:\Program Files (x86)\Exact Audio Copy\Flac\flac.exe
Additional command line options : -V -8 -T “Date=%year%” -T “Genre=%genre%” %source%

TOC of the extracted CD

Track | Start | Length | Start sector | End sector
———————————————————
1 | 0:00.00 | 3:29.15 | 0 | 15689
2 | 3:29.15 | 4:45.35 | 15690 | 37099
3 | 8:14.50 | 4:33.56 | 37100 | 57630
4 | 12:48.31 | 3:25.74 | 57631 | 73079
5 | 16:14.30 | 5:37.14 | 73080 | 98368
6 | 21:51.44 | 2:21.11 | 98369 | 108954
7 | 24:12.55 | 6:06.09 | 108955 | 136413
8 | 30:18.64 | 3:07.64 | 136414 | 150502
9 | 33:26.53 | 4:13.37 | 150503 | 169514
10 | 37:40.15 | 4:15.26 | 169515 | 188665
11 | 41:55.41 | 4:48.56 | 188666 | 210321
12 | 46:44.22 | 3:13.59 | 210322 | 224855
13 | 49:58.06 | 1:42.49 | 224856 | 232554

Range status and errors

Selected range

Filename C:\CDRip by Deminbek\Sepultura – Primitive Future.wav

Peak level 100.0 %
Extraction speed 2.5 X
Range quality 100.0 %
Test CRC B5E9ED4D
Copy CRC B5E9ED4D
Copy OK

No errors occurred

AccurateRip summary

Track 1 not present in database
Track 2 not present in database
Track 3 not present in database
Track 4 not present in database
Track 5 not present in database
Track 6 not present in database
Track 7 not present in database
Track 8 not present in database
Track 9 not present in database
Track 10 not present in database
Track 11 not present in database
Track 12 not present in database
Track 13 not present in database

None of the tracks are present in the AccurateRip database

End of status report

==== Log checksum B5A92C1EED7A7FF15A00705A67222D2F1961AECFD1852B91E064D766436136FB ====

REM GENRE “Thrash Metal”
REM DATE 1990
REM DISCID 960C1C0D
REM COMMENT “ExactAudioCopy v1.0b3”
PERFORMER “Sepultura”
TITLE “Primitive Future”
FILE “Sepultura – Primitive Future.flac” WAVE
TRACK 01 AUDIO
TITLE “Primitive Future”
PERFORMER “Sepultura”
FLAGS DCP
INDEX 01 00:00:00
TRACK 02 AUDIO
TITLE “Inner Self”
PERFORMER “Sepultura”
FLAGS DCP
INDEX 00 03:27:15
INDEX 01 03:29:15
TRACK 03 AUDIO
TITLE “Mass Hypnosis”
PERFORMER “Sepultura”
FLAGS DCP
INDEX 00 08:12:50
INDEX 01 08:14:50
TRACK 04 AUDIO
TITLE “Troops Of Doom”
PERFORMER “Sepultura”
FLAGS DCP
INDEX 00 12:46:31
INDEX 01 12:48:31
TRACK 05 AUDIO
TITLE “Stronger Than Hate”
PERFORMER “Sepultura”
FLAGS DCP
INDEX 00 16:12:30
INDEX 01 16:14:30
TRACK 06 AUDIO
TITLE “Guitar Solo”
PERFORMER “Sepultura”
FLAGS DCP
INDEX 00 21:49:44
INDEX 01 21:51:44
TRACK 07 AUDIO
TITLE “Inquisition Symphony”
PERFORMER “Sepultura”
FLAGS DCP
INDEX 00 24:10:55
INDEX 01 24:12:55
TRACK 08 AUDIO
TITLE “Antichrist”
PERFORMER “Sepultura”
FLAGS DCP
INDEX 00 30:16:64
INDEX 01 30:18:64
TRACK 09 AUDIO
TITLE “Slaves Of Pain”
PERFORMER “Sepultura”
FLAGS DCP
INDEX 00 33:24:53
INDEX 01 33:26:53
TRACK 10 AUDIO
TITLE “Beneath The Remains”
PERFORMER “Sepultura”
FLAGS DCP
INDEX 00 37:38:15
INDEX 01 37:40:15
TRACK 11 AUDIO
TITLE “From The Past Comes The Storms”
PERFORMER “Sepultura”
FLAGS DCP
INDEX 00 41:53:41
INDEX 01 41:55:41
TRACK 12 AUDIO
TITLE “Bodies”
PERFORMER “Sepultura”
FLAGS DCP
INDEX 00 46:42:22
INDEX 01 46:44:22
TRACK 13 AUDIO
TITLE “Protest And Survive”
PERFORMER “Sepultura”
FLAGS DCP
INDEX 00 49:56:06
INDEX 01 49:58:06


Leave a Reply

Your email address will not be published. Required fields are marked *

This site uses Akismet to reduce spam. Learn how your comment data is processed.