Sepultura – Nation (Japanese Edition)




Artist: Sepultura
Year: 2001
Genre: Metal
Notes: Discogs
Add. Notes: Japanese Edition
Cover incl.: Yes
Encoder: FLAC
Bitrate: ~1000 kBit/s (44.1 kHz/16 Bit/s)
Log & Cue incl.: Yes/Yes
Size: 565,8 MB
Password: “slam” (without ” “)


All Downloads/Hosters are compatible

Download 1
KatFile.com
Turbobit.net
FileFactory.com
Rapidgator.net
Download 2
KatFile.com
Turbobit.net
FileFactory.com
Rapidgator.net

Tracklist:

1 Sepulnation 4:21
2 Revolt 0:56
3 Border Wars 5:11
4 One Man Army 5:27
5 Vox Populi 3:41
6 The Ways Of Faith 4:53
7 Uma Cura 3:14
8 Who Must Die? 2:58
9 Saga 4:38
10 Tribe To A Nation 2:49
11 Politricks 4:14
12 Human Cause 0:57
13 Reject 2:59
14 Water 2:44
15 Valtio 3:25

Bonus Tracks:
16 Bela Lugosi's Dead 4:09
17 Annihilation 1:31
18 Rise Above 2:01
19 Revolt (Demo) 3:49
20 Roots Bloody Roots (Live) 3:44

EAC-Log, CUE-Sheed & NFO:

Click to open spoiler
Exact Audio Copy V1.0 beta 3 from 29. August 2011

EAC extraction logfile from 8. October 2012, 20:17

Sepultura / Nation [Japan, RRCY-11143]

Used drive : TSSTcorpCDDVDW TS-L633J Adapter: 0 ID: 1

Read mode : Secure
Utilize accurate stream : Yes
Defeat audio cache : Yes
Make use of C2 pointers : No

Read offset correction : 6
Overread into Lead-In and Lead-Out : No
Fill up missing offset samples with silence : Yes
Delete leading and trailing silent blocks : No
Null samples used in CRC calculations : Yes
Used interface : Native Win32 interface for Win NT & 2000

Used output format : Internal WAV Routines
Sample format : 44.100 Hz; 16 Bit; Stereo

TOC of the extracted CD

Track | Start | Length | Start sector | End sector
———————————————————
1 | 0:00.00 | 4:20.65 | 0 | 19564
2 | 4:20.65 | 0:56.05 | 19565 | 23769
3 | 5:16.70 | 5:10.65 | 23770 | 47084
4 | 10:27.60 | 5:27.37 | 47085 | 71646
5 | 15:55.22 | 3:41.30 | 71647 | 88251
6 | 19:36.52 | 4:53.25 | 88252 | 110251
7 | 24:30.02 | 3:14.35 | 110252 | 124836
8 | 27:44.37 | 2:58.20 | 124837 | 138206
9 | 30:42.57 | 4:37.63 | 138207 | 159044
10 | 35:20.45 | 2:48.60 | 159045 | 171704
11 | 38:09.30 | 4:14.02 | 171705 | 190756
12 | 42:23.32 | 0:57.35 | 190757 | 195066
13 | 43:20.67 | 2:59.10 | 195067 | 208501
14 | 46:20.02 | 2:44.15 | 208502 | 220816
15 | 49:04.17 | 3:24.68 | 220817 | 236184
16 | 52:29.10 | 4:08.50 | 236185 | 254834
17 | 56:37.60 | 1:31.00 | 254835 | 261659
18 | 58:08.60 | 2:00.55 | 261660 | 270714
19 | 60:09.40 | 3:48.45 | 270715 | 287859
20 | 63:58.10 | 3:42.50 | 287860 | 304559

Range status and errors

Selected range

Filename D:\spv-av\[2001] [CD] Nation [Japan, RRCY-11143]\Sepultura – Nation [Japan, RRCY-11143].wav

Peak level 99.8 %
Extraction speed 3.2 X
Range quality 100.0 %
Test CRC 74AE5F3F
Copy CRC 74AE5F3F
Copy OK

No errors occurred

AccurateRip summary

Track 1 cannot be verified as accurate (confidence 24) [9D988DC4], AccurateRip returned [FD31A57A] (AR v2)
Track 2 cannot be verified as accurate (confidence 23) [F4D7A594], AccurateRip returned [476F7E1D] (AR v2)
Track 3 cannot be verified as accurate (confidence 24) [52E43FE7], AccurateRip returned [95E9E381] (AR v2)
Track 4 cannot be verified as accurate (confidence 23) [D6B5AE1E], AccurateRip returned [7E4D348A] (AR v2)
Track 5 cannot be verified as accurate (confidence 24) [880B03BF], AccurateRip returned [92CDE078] (AR v2)
Track 6 cannot be verified as accurate (confidence 24) [909820D6], AccurateRip returned [A7B0449C] (AR v2)
Track 7 cannot be verified as accurate (confidence 24) [30CB6C5A], AccurateRip returned [DEA5095E] (AR v2)
Track 8 cannot be verified as accurate (confidence 24) [F270C296], AccurateRip returned [EB6A222B] (AR v2)
Track 9 cannot be verified as accurate (confidence 24) [53AF0945], AccurateRip returned [E0D9A2C8] (AR v2)
Track 10 cannot be verified as accurate (confidence 24) [1962E246], AccurateRip returned [5E0795DA] (AR v2)
Track 11 cannot be verified as accurate (confidence 23) [BDCBB218], AccurateRip returned [EF186846] (AR v2)
Track 12 cannot be verified as accurate (confidence 24) [B5561924], AccurateRip returned [3D08C063] (AR v2)
Track 13 cannot be verified as accurate (confidence 24) [70544C7B], AccurateRip returned [A10D1F20] (AR v2)
Track 14 cannot be verified as accurate (confidence 24) [873B51F7], AccurateRip returned [2D730D7F] (AR v2)
Track 15 cannot be verified as accurate (confidence 24) [3B9DF782], AccurateRip returned [0EC8CF3B] (AR v2)
Track 16 cannot be verified as accurate (confidence 24) [D6D3FAEC], AccurateRip returned [8D59AE1B] (AR v2)
Track 17 cannot be verified as accurate (confidence 24) [B10993E7], AccurateRip returned [62D3B36C] (AR v2)
Track 18 cannot be verified as accurate (confidence 24) [3AF75F02], AccurateRip returned [0B0D3C88] (AR v2)
Track 19 cannot be verified as accurate (confidence 23) [1C2B40E4], AccurateRip returned [44D1F957] (AR v2)
Track 20 cannot be verified as accurate (confidence 22) [5069A4C6], AccurateRip returned [E3FD2AA0] (AR v2)

No tracks could be verified as accurate
You may have a different pressing from the one(s) in the database

End of status report

REM GENRE “Thrash Metal”
REM DATE 2001
REM DISCID 250FDC14
REM COMMENT “ExactAudioCopy v1.0b3”
PERFORMER “Sepultura”
TITLE “Nation [Japan, RRCY-11143]”
FILE “Sepultura – Nation [Japan, RRCY-11143].flac” WAVE
TRACK 01 AUDIO
TITLE “Sepulnation”
PERFORMER “Sepultura”
INDEX 01 00:00:00
TRACK 02 AUDIO
TITLE “Revolt”
PERFORMER “Sepultura”
INDEX 00 04:20:47
INDEX 01 04:20:65
TRACK 03 AUDIO
TITLE “Border Wars”
PERFORMER “Sepultura”
INDEX 01 05:16:70
TRACK 04 AUDIO
TITLE “One Man Army”
PERFORMER “Sepultura”
INDEX 00 10:13:55
INDEX 01 10:27:60
TRACK 05 AUDIO
TITLE “Vox Populi”
PERFORMER “Sepultura”
INDEX 01 15:55:22
TRACK 06 AUDIO
TITLE “The Ways Of Faith”
PERFORMER “Sepultura”
INDEX 01 19:36:52
TRACK 07 AUDIO
TITLE “Uma Cura”
PERFORMER “Sepultura”
INDEX 00 24:15:05
INDEX 01 24:30:02
TRACK 08 AUDIO
TITLE “Who Must Die?”
PERFORMER “Sepultura”
INDEX 01 27:44:37
TRACK 09 AUDIO
TITLE “Saga”
PERFORMER “Sepultura”
INDEX 01 30:42:57
TRACK 10 AUDIO
TITLE “Tribe To A Nation”
PERFORMER “Sepultura”
INDEX 00 35:20:35
INDEX 01 35:20:45
TRACK 11 AUDIO
TITLE “Politricks”
PERFORMER “Sepultura”
INDEX 00 37:55:55
INDEX 01 38:09:30
TRACK 12 AUDIO
TITLE “Human Cause”
PERFORMER “Sepultura”
INDEX 01 42:23:32
TRACK 13 AUDIO
TITLE “Reject”
PERFORMER “Sepultura”
INDEX 00 43:20:50
INDEX 01 43:20:67
TRACK 14 AUDIO
TITLE “Water”
PERFORMER “Sepultura”
INDEX 00 46:05:57
INDEX 01 46:20:02
TRACK 15 AUDIO
TITLE “Valtio”
PERFORMER “Sepultura”
INDEX 01 49:04:17
TRACK 16 AUDIO
TITLE “Bela Lugosi’s Dead [Bonus Track]”
PERFORMER “Sepultura”
INDEX 00 52:25:05
INDEX 01 52:29:10
TRACK 17 AUDIO
TITLE “Annihilation [Bonus Track]”
PERFORMER “Sepultura”
INDEX 00 56:35:73
INDEX 01 56:37:60
TRACK 18 AUDIO
TITLE “Rise Above [Bonus Track]”
PERFORMER “Sepultura”
INDEX 00 58:08:20
INDEX 01 58:08:60
TRACK 19 AUDIO
TITLE “Revolt (demo) [Bonus Track]”
PERFORMER “Sepultura”
INDEX 00 60:07:55
INDEX 01 60:09:40
TRACK 20 AUDIO
TITLE “Roots Bloody Roots (live) [Bonus Track] ”
PERFORMER “Sepultura”
INDEX 01 63:58:10


Leave a Reply

Your email address will not be published. Required fields are marked *

Enter the text from the image below
 

This site uses Akismet to reduce spam. Learn how your comment data is processed.