Sepultura – Morbid Visions / Bestial Devastation (Remastered)




Artist: Sepultura
Year: 1985/2010
Genre: Metal
Notes: Discogs
Add. Notes: Remastered
Cover incl.: Yes
Encoder: FLAC
Bitrate: ~1100 kBit/s (44.1 kHz/16 Bit/s)
Log & Cue incl.: Yes
Size: 496 MB
Password: “slam” (without ” “)


All Downloads/Hosters are compatible

Download 1
KatFile.com
Turbobit.net
FileFactory.com
Rapidgator.net
Download 2
KatFile.com
Turbobit.net
FileFactory.com
Rapidgator.net

Tracklist:

1. Morbid Visions
2. Mayhem
3. Troops Of Doom
4. War
5. Crucifixion
6. Show Me The Wrath
7. Funeral Rites
8. Empire Of The Damned
9. The Curse
10. Bestial Devastation
11. Antichrist
12. Necromancer
13. Warriors Of Death
14. Necromancer (Demo Version)
15. Anticop (Live)

EAC-Log, CUE-Sheed & NFO:

Click to open spoiler
Exact Audio Copy V0.99 prebeta 5 from 4. May 2009

EAC extraction logfile from 17. September 2011, 15:25

Sepultura / Morbid Visions + Bestial Devastation

Used drive : SONY DVD RW AD-7260S Adapter: 2 ID: 0

Read mode : Secure
Utilize accurate stream : Yes
Defeat audio cache : Yes
Make use of C2 pointers : No

Read offset correction : 48
Overread into Lead-In and Lead-Out : No
Fill up missing offset samples with silence : Yes
Delete leading and trailing silent blocks : No
Null samples used in CRC calculations : Yes
Used interface : Native Win32 interface for Win NT & 2000

Used output format : Monkey’s Audio Lossless Encoder
Selected bitrate : High Lossless Compression
Quality : High
Add ID3 tag : Yes
Command line compressor : C:\Archivos de programa\Exact Audio Copy\MAC.EXE

TOC of the extracted CD

Track | Start | Length | Start sector | End sector
———————————————————
1 | 0:00.00 | 3:25.20 | 0 | 15394
2 | 3:25.20 | 3:17.70 | 15395 | 30239
3 | 6:43.15 | 3:23.30 | 30240 | 45494
4 | 10:06.45 | 5:34.45 | 45495 | 70589
5 | 15:41.15 | 5:04.07 | 70590 | 93396
6 | 20:45.22 | 3:54.18 | 93397 | 110964
7 | 24:39.40 | 4:24.72 | 110965 | 130836
8 | 29:04.37 | 4:25.70 | 130837 | 150781
9 | 33:30.32 | 0:39.33 | 150782 | 153739
10 | 34:09.65 | 3:08.17 | 153740 | 167856
11 | 37:18.07 | 3:47.50 | 167857 | 184931
12 | 41:05.57 | 3:53.10 | 184932 | 202416
13 | 44:58.67 | 4:10.08 | 202417 | 221174
14 | 49:09.00 | 4:00.42 | 221175 | 239216
15 | 53:09.42 | 3:02.05 | 239217 | 252871

Range status and errors

Selected range

Filename C:\Documents and Settings\admin\Escritorio\Sepultura – Morbid Visions + Bestial Devastation.wav

Peak level 100.0 %
Range quality 99.9 %
Copy CRC 44373CE3
Copy OK

No errors occurred

AccurateRip summary

Track 1 cannot be verified as accurate (confidence 14) [C87AFF93], AccurateRip returned [41244FF8]
Track 2 cannot be verified as accurate (confidence 14) [B0BD1B89], AccurateRip returned [336F39F3]
Track 3 cannot be verified as accurate (confidence 14) [D5EC2AD0], AccurateRip returned [CAC7CB8F]
Track 4 cannot be verified as accurate (confidence 14) [B86ECA65], AccurateRip returned [E07DE359]
Track 5 cannot be verified as accurate (confidence 14) [79AC4F98], AccurateRip returned [0784FE86]
Track 6 cannot be verified as accurate (confidence 14) [CB504AD1], AccurateRip returned [C714BCF3]
Track 7 cannot be verified as accurate (confidence 14) [2B2C15FE], AccurateRip returned [7C34AD48]
Track 8 cannot be verified as accurate (confidence 14) [4D22D603], AccurateRip returned [6FFC5598]
Track 9 cannot be verified as accurate (confidence 15) [3C0C9DF0], AccurateRip returned [D3C4E082]
Track 10 cannot be verified as accurate (confidence 15) [778DAF60], AccurateRip returned [E503576B]
Track 11 cannot be verified as accurate (confidence 14) [B9640817], AccurateRip returned [8D7759C5]
Track 12 cannot be verified as accurate (confidence 15) [BE6F1D75], AccurateRip returned [C03602ED]
Track 13 cannot be verified as accurate (confidence 14) [A6B9A35E], AccurateRip returned [3E73991E]
Track 14 cannot be verified as accurate (confidence 15) [683E9CB9], AccurateRip returned [5573C209]
Track 15 cannot be verified as accurate (confidence 13) [61482645], AccurateRip returned [AD5C8FDD]

No tracks could be verified as accurate
You may have a different pressing from the one(s) in the database

End of status report

REM GENRE “Thrash Metal”
REM DATE 1985
REM DISCID B00D2B0F
REM COMMENT “ExactAudioCopy v0.99pb5”
PERFORMER “Sepultura”
TITLE “Morbid Visions + Bestial Devastation ”
FILE “Sepultura – Morbid Visions + Bestial Devastation.flac” WAVE
TRACK 01 AUDIO
TITLE “Morbid Visions”
PERFORMER “Sepultura”
INDEX 01 00:00:00
TRACK 02 AUDIO
TITLE “Mayhem”
PERFORMER “Sepultura”
INDEX 01 03:25:20
TRACK 03 AUDIO
TITLE “Troops Of Doom”
PERFORMER “Sepultura”
INDEX 01 06:43:15
TRACK 04 AUDIO
TITLE “War”
PERFORMER “Sepultura”
INDEX 01 10:06:45
TRACK 05 AUDIO
TITLE “Crucifixion”
PERFORMER “Sepultura”
INDEX 01 15:41:15
TRACK 06 AUDIO
TITLE “Show Me The Wrath”
PERFORMER “Sepultura”
INDEX 01 20:45:22
TRACK 07 AUDIO
TITLE “Funeral Rites”
PERFORMER “Sepultura”
INDEX 01 24:39:40
TRACK 08 AUDIO
TITLE “Empire Of The Damned”
PERFORMER “Sepultura”
INDEX 01 29:04:37
TRACK 09 AUDIO
TITLE “The Curse”
PERFORMER “Sepultura”
INDEX 01 33:30:32
TRACK 10 AUDIO
TITLE “Bestial Devastation”
PERFORMER “Sepultura”
INDEX 01 34:09:65
TRACK 11 AUDIO
TITLE “Antichrist”
PERFORMER “Sepultura”
INDEX 01 37:18:07
TRACK 12 AUDIO
TITLE “Necromancer”
PERFORMER “Sepultura”
INDEX 01 41:05:57
TRACK 13 AUDIO
TITLE “Warriors Of Death”
PERFORMER “Sepultura”
INDEX 01 44:58:67
TRACK 14 AUDIO
TITLE “Necromancer (Demo Version)”
PERFORMER “Sepultura”
INDEX 01 49:09:00
TRACK 15 AUDIO
TITLE “Anticop (Live)”
PERFORMER “Sepultura”
INDEX 01 53:09:42


Leave a Reply

Your email address will not be published. Required fields are marked *

This site uses Akismet to reduce spam. Learn how your comment data is processed.