Sepultura – Morbid Visions / Bestial Devastation (Remastered)




No Cover available


Artist: Sepultura
Year: 1991
Genre: Metal
Notes: Discogs
Add. Notes: Remastered
Watch Songs on: YouTube
Cover incl.: Yes
Encoder: FLAC
Bitrate: ~900 kBit/s (44.1 kHz/16 Bit/s)
Log & Cue incl.: Yes/Yes
Size: 335,7 MB
Password: “slam” (without ” “)


All Downloads/Hosters are compatible

Download 1
KatFile.com
Turbobit.net
Rapidgator.net
FileFactory.com
Download 2
KatFile.com
Turbobit.net
Rapidgator.net
FileFactory.com

Tracklist:

1 Morbid Visions 3:23
2 Mayhem 3:15
3 Troops Of Doom 3:21
4 War 5:32
5 Crucifixion 5:02
6 Show Me The Wrath 3:52
7 Funeral Rites 4:23
8 Empire Of The Damned 4:24
9 The Curse 0:39
10 Bestial Devastation 3:06
11 Antichrist 3:46
12 Necromancer 3:52
13 Warriors Of Death 4:07

EAC-Log, CUE-Sheed & NFO:

Click to open spoiler
Отчёт EAC об извлечении, выполненном 4. февраля 2008, 13:49 для диска:
Sepultura / Morbid Visions – Bestial Devastation

Дисковод: _NEC DVD_RW ND-3500AG Adapter: 4 ID: 1
Режим чтения: Достоверный (C2: нет, Точный поток: да, Отключение кэша: да)
Коррекция смещения при чтении: 48
Способность читать области Lead-in и Lead-out : Нет

Выходной формат: Внутренние WAV-операции
44.100 Гц; 16 бит; стерео

Другие параметры:
Заполнение пропущенных сэмплов тишиной : Да
Удаление блоков с тишиной в начале и конце : Нет
Установленный внешний ASPI-интерфейс

Характеристики диапазона извлечения и сообщения об ошибках
Выбранный диапазон
Имя файла I:\Upload\Sepultura\Morbid Visions – Bestial Devastation\Sepultura – Morbid Visions – Bestial Devastation.wav

Пиковый уровень 100.0 %
Качество диапазона 100.0 %
CRC F1087BB0
Копирование… OK

Ошибок не произошло

Конец отчёта

REM GENRE “Death Metal”
REM DATE 1986
REM DISCID 9D0B840D
REM COMMENT “ExactAudioCopy v0.95b4”
PERFORMER “Sepultura”
TITLE “Morbid Visions – Bestial Devastation”
FILE “Sepultura – Morbid Visions – Bestial Devastation.flac” WAVE
TRACK 01 AUDIO
TITLE “Morbid Visions”
PERFORMER “Sepultura”
INDEX 00 00:00:00
INDEX 01 00:00:32
TRACK 02 AUDIO
TITLE “Mayhem”
PERFORMER “Sepultura”
INDEX 00 03:25:55
INDEX 01 03:26:15
TRACK 03 AUDIO
TITLE “Troops Of Doom”
PERFORMER “Sepultura”
INDEX 00 06:42:42
INDEX 01 06:44:10
TRACK 04 AUDIO
TITLE “War”
PERFORMER “Sepultura”
INDEX 00 10:06:20
INDEX 01 10:07:40
TRACK 05 AUDIO
TITLE “Crucifixion”
PERFORMER “Sepultura”
INDEX 00 15:40:42
INDEX 01 15:42:07
TRACK 06 AUDIO
TITLE “Show Me The Wrath”
PERFORMER “Sepultura”
INDEX 00 20:45:37
INDEX 01 20:46:17
TRACK 07 AUDIO
TITLE “Funeral Rites”
PERFORMER “Sepultura”
INDEX 00 24:39:02
INDEX 01 24:40:35
TRACK 08 AUDIO
TITLE “Empire Of The Damned”
PERFORMER “Sepultura”
INDEX 00 29:03:52
INDEX 01 29:05:32
TRACK 09 AUDIO
TITLE “The Curse”
PERFORMER “Sepultura”
INDEX 00 33:31:00
INDEX 01 33:31:47
TRACK 10 AUDIO
TITLE “Bestial Devastation”
PERFORMER “Sepultura”
INDEX 01 34:10:47
TRACK 11 AUDIO
TITLE “Antichrist”
PERFORMER “Sepultura”
INDEX 00 37:17:32
INDEX 01 37:19:00
TRACK 12 AUDIO
TITLE “Necromancer”
PERFORMER “Sepultura”
INDEX 00 41:05:60
INDEX 01 41:06:52
TRACK 13 AUDIO
TITLE “Warriors Of Death”
PERFORMER “Sepultura”
INDEX 00 44:58:35
INDEX 01 44:59:62


0

Publication author

offline 4 days

Chaos

3
Comments: 4Publics: 3565Registration: 02-02-2019
Spread the Download

Leave a Reply

Your email address will not be published. Required fields are marked *

Enter the text from the image below
 

This site uses Akismet to reduce spam. Learn how your comment data is processed.