Sepultura – Morbid Visions / Bestial Devastation (Remastered)




No Cover available

Artist: Sepultura
Year: 1995
Genre: Metal
Notes: Discogs
Add. Notes: Remastered
Watch Songs on: YouTube
Cover incl.: Yes
Encoder: FLAC
Bitrate: ~900 kBit/s (44.1 kHz/16 Bit/s)
Log & Cue incl.: Yes/Yes
Size: 368,5 MB
Password: “slam” (without ” “)


All Downloads/Hosters are compatible

Download 1
KatFile.com
Turbobit.net
Rapidgator.net
FileFactory.com
Download 2
KatFile.com
Turbobit.net
Rapidgator.net
FileFactory.com

Tracklist:

1 Morbid Visions 3:23
2 Mayhem 3:15
3 Troops Of Doom 3:21
4 War 5:32
5 Crucifixion 5:02
6 Show Me The Wrath 3:52
7 Funeral Rites 4:23
8 Empire Of The Damned 4:24
9 The Curse 0:39
10 Bestial Devastation 3:06
11 Antichrist 3:46
12 Necromancer 3:52
13 Warriors Of Death 4:07

EAC-Log, CUE-Sheed & NFO:

Click to open spoiler
Exact Audio Copy V1.0 beta 3 from 29. August 2011

EAC extraction logfile from 25. July 2012, 22:38

Sepultura / Morbid Visions + Bestial Devastation

Used drive : TSSTcorpCD/DVDW SH-S182M Adapter: 0 ID: 0

Read mode : Secure
Utilize accurate stream : Yes
Defeat audio cache : Yes
Make use of C2 pointers : No

Read offset correction : 6
Overread into Lead-In and Lead-Out : No
Fill up missing offset samples with silence : Yes
Delete leading and trailing silent blocks : No
Null samples used in CRC calculations : Yes
Used interface : Installed external ASPI interface

Used output format : Internal WAV Routines
Sample format : 44.100 Hz; 16 Bit; Stereo

TOC of the extracted CD

Track | Start | Length | Start sector | End sector
———————————————————
1 | 0:00.00 | 3:25.10 | 0 | 15384
2 | 3:25.10 | 3:17.70 | 15385 | 30229
3 | 6:43.05 | 3:23.30 | 30230 | 45484
4 | 10:06.35 | 5:34.43 | 45485 | 70577
5 | 15:41.03 | 5:04.10 | 70578 | 93387
6 | 20:45.13 | 3:54.17 | 93388 | 110954
7 | 24:39.30 | 4:24.73 | 110955 | 130827
8 | 29:04.28 | 4:26.15 | 130828 | 150792
9 | 33:30.43 | 0:38.72 | 150793 | 153714
10 | 34:09.40 | 3:08.30 | 153715 | 167844
11 | 37:17.70 | 3:47.53 | 167845 | 184922
12 | 41:05.48 | 3:53.10 | 184923 | 202407
13 | 44:58.58 | 4:08.25 | 202408 | 221032

Range status and errors

Selected range

Filename C:\EAC\Sepultura – Morbid Visions + Bestial Devastation.wav

Peak level 100.0 %
Extraction speed 7.0 X
Range quality 100.0 %
Test CRC 0C525DED
Copy CRC 0C525DED
Copy OK

No errors occurred

AccurateRip summary

Track 1 accurately ripped (confidence 16) [AEACFD9D] (AR v1)
Track 2 accurately ripped (confidence 2) [2C36FC16] (AR v2)
Track 3 accurately ripped (confidence 2) [DDC994B9] (AR v2)
Track 4 accurately ripped (confidence 2) [BDC00647] (AR v2)
Track 5 accurately ripped (confidence 2) [DD569942] (AR v2)
Track 6 accurately ripped (confidence 2) [912151C1] (AR v2)
Track 7 accurately ripped (confidence 2) [E5BB4F94] (AR v2)
Track 8 accurately ripped (confidence 2) [714AACAC] (AR v2)
Track 9 accurately ripped (confidence 2) [D263840F] (AR v2)
Track 10 accurately ripped (confidence 2) [49284BA6] (AR v2)
Track 11 accurately ripped (confidence 2) [D91CA859] (AR v2)
Track 12 accurately ripped (confidence 2) [1E6E0EFF] (AR v2)
Track 13 accurately ripped (confidence 2) [43538BB0] (AR v2)

All tracks accurately ripped

End of status report

==== Log checksum 8BC221DD61DB82AA9774FEC3755AEA5312AD018CBAE4EEE240F895650B04A5C9 ====

REM GENRE “Thrash Metal”
REM DATE 1986
REM DISCID 990B830D
REM COMMENT “ExactAudioCopy v1.0b3”
REM ACCURATERIPID 0018125e-00eff328-990b830d
CATALOG 016861927622
REM DISCNUMBER 1
REM TOTALDISCS 1
PERFORMER “Sepultura”
TITLE “Morbid Visions + Bestial Devastation”
FILE “Sepultura – 1986 – Morbid Visions + Bestial Devastation.flac” WAVE
TRACK 01 AUDIO
TITLE “Morbid Visions”
PERFORMER “Sepultura”
INDEX 01 00:00:00
TRACK 02 AUDIO
TITLE “Mayhem”
PERFORMER “Sepultura”
INDEX 01 03:25:10
TRACK 03 AUDIO
TITLE “Troops Of Doom”
PERFORMER “Sepultura”
INDEX 00 06:41:60
INDEX 01 06:43:05
TRACK 04 AUDIO
TITLE “War”
PERFORMER “Sepultura”
INDEX 00 10:05:35
INDEX 01 10:06:35
TRACK 05 AUDIO
TITLE “Crucifixion”
PERFORMER “Sepultura”
INDEX 00 15:39:60
INDEX 01 15:41:03
TRACK 06 AUDIO
TITLE “Show Me The Wrath”
PERFORMER “Sepultura”
INDEX 00 20:44:58
INDEX 01 20:45:13
TRACK 07 AUDIO
TITLE “Funeral Rites”
PERFORMER “Sepultura”
INDEX 00 24:38:20
INDEX 01 24:39:30
TRACK 08 AUDIO
TITLE “Empire Of The Damned”
PERFORMER “Sepultura”
INDEX 00 29:03:48
INDEX 01 29:04:28
TRACK 09 AUDIO
TITLE “The Curse”
PERFORMER “Sepultura”
INDEX 00 33:30:18
INDEX 01 33:30:43
TRACK 10 AUDIO
TITLE “Bestial Devastation”
PERFORMER “Sepultura”
INDEX 01 34:09:40
TRACK 11 AUDIO
TITLE “Antichrist”
PERFORMER “Sepultura”
INDEX 00 37:16:50
INDEX 01 37:17:70
TRACK 12 AUDIO
TITLE “Necromancer”
PERFORMER “Sepultura”
INDEX 00 41:05:05
INDEX 01 41:05:48
TRACK 13 AUDIO
TITLE “Warriors Of Death”
PERFORMER “Sepultura”
INDEX 00 44:57:53
INDEX 01 44:58:58


0

Publication author

offline 8 hours

Chaos

3
Comments: 4Publics: 3424Registration: 02-02-2019
Spread the Download

Leave a Reply

Your email address will not be published. Required fields are marked *

Enter the text from the image below
 

This site uses Akismet to reduce spam. Learn how your comment data is processed.