Sepultura – Machine Messiah (Limited Japanese Edition)




[Total: 0    Average: 0/5]

Artist: Sepultura
Year: 2017
Genre: Metal
Notes: Discogs
Add. Notes: Limited Japanese Edition
Cover incl.: Yes
Encoder: FLAC
Bitrate: ~1000 kBit/s (44.1 kHz/16 Bit/s)
Log & Cue incl.: Yes
Size: 414,1 MB
Password: “slam” (without ” “)


All Downloads/Hosters are compatible

Download 1
KatFile.com
Turbobit.net
FileFactory.com
Rapidgator.net
Download 2
KatFile.com
Turbobit.net
FileFactory.com
Rapidgator.net
Download 3
KatFile.com
Turbobit.net
FileFactory.com
Rapidgator.net

Tracklist:

1 Machine Messiah 
2 I Am The Enemy 
3 Phantom Self 
4 Alethea 
5 Iceberg Dances 
6 Sworn Oath 
7 Resistant Parasites 
8 Silent Violence 
9 Vandals Nest 
10 Cyber God 

Bonus Tracks
11 Chosen Skin 
12 Ultraseven No Uta (Sings in Japanese)

EAC-Log, CUE-Sheed & NFO:

Click to open spoiler
Exact Audio Copy V1.0 beta 6 from 9. April 2015

EAC extraction logfile from 30. January 2017, 12:46

Sepultura / Machine Messiah

Used drive : Optiarc DVD RW AD-7243S Adapter: 1 ID: 0

Read mode : Secure
Utilize accurate stream : Yes
Defeat audio cache : Yes
Make use of C2 pointers : No

Read offset correction : 48
Overread into Lead-In and Lead-Out : No
Fill up missing offset samples with silence : Yes
Delete leading and trailing silent blocks : No
Null samples used in CRC calculations : Yes
Used interface : Installed external ASPI interface

Used output format : User Defined Encoder
Selected bitrate : 768 kBit/s
Quality : High
Add ID3 tag : No
Command line compressor : D:\Flac\flac-1.3.1-win\win64\flac.exe
Additional command line options : -V -8 -T “Date=%year%” -T “Genre=%genre%” %source%

TOC of the extracted CD

Track | Start | Length | Start sector | End sector
———————————————————
1 | 0:00.00 | 5:54.48 | 0 | 26597
2 | 5:54.48 | 2:27.56 | 26598 | 37678
3 | 8:22.29 | 5:30.13 | 37679 | 62441
4 | 13:52.42 | 4:31.41 | 62442 | 82807
5 | 18:24.08 | 4:41.40 | 82808 | 103922
6 | 23:05.48 | 6:09.00 | 103923 | 131597
7 | 29:14.48 | 4:58.13 | 131598 | 153960
8 | 34:12.61 | 3:46.14 | 153961 | 170924
9 | 37:59.00 | 2:47.38 | 170925 | 183487
10 | 40:46.38 | 5:22.37 | 183488 | 207674
11 | 46:09.00 | 3:17.28 | 207675 | 222477
12 | 49:26.28 | 1:17.71 | 222478 | 228323

Range status and errors

Selected range

Filename D:\Мои релизы\Sepultura[2017]Machine Messiah(Japan-GQCS90261-2}\Sepultura – Machine Messiah.wav

Peak level 100.0 %
Extraction speed 3.9 X
Range quality 100.0 %
Test CRC 1DDF2B8C
Copy CRC 1DDF2B8C
Copy OK

No errors occurred

AccurateRip summary

Track 1 not present in database
Track 2 not present in database
Track 3 not present in database
Track 4 not present in database
Track 5 not present in database
Track 6 not present in database
Track 7 not present in database
Track 8 not present in database
Track 9 not present in database
Track 10 not present in database
Track 11 not present in database
Track 12 not present in database

None of the tracks are present in the AccurateRip database

End of status report

==== Log checksum 71BC2FD4FEFE25BD99E66DC0621518168A8108E45E7B7CD9828FF5F61440EE79 ====

REM GENRE Metal
REM DATE 2017
REM DISCID AA0BE40C
REM COMMENT “ExactAudioCopy v1.0b6”
PERFORMER “Sepultura”
TITLE “Machine Messiah”
FILE “Sepultura – Machine Messiah.Flac” WAVE
TRACK 01 AUDIO
TITLE “Machine Messiah”
PERFORMER “Sepultura”
INDEX 01 00:00:00
TRACK 02 AUDIO
TITLE “I Am The Enemy”
PERFORMER “Sepultura”
INDEX 01 05:54:48
TRACK 03 AUDIO
TITLE “Phantom Self”
PERFORMER “Sepultura”
INDEX 01 08:22:29
TRACK 04 AUDIO
TITLE “Alethea”
PERFORMER “Sepultura”
INDEX 01 13:52:42
TRACK 05 AUDIO
TITLE “Iceberg Dances”
PERFORMER “Sepultura”
INDEX 01 18:24:08
TRACK 06 AUDIO
TITLE “Sworn Oath”
PERFORMER “Sepultura”
INDEX 01 23:05:48
TRACK 07 AUDIO
TITLE “Resistant Parasites”
PERFORMER “Sepultura”
INDEX 01 29:14:48
TRACK 08 AUDIO
TITLE “Silent Violence”
PERFORMER “Sepultura”
INDEX 01 34:12:61
TRACK 09 AUDIO
TITLE “Vandals Nest”
PERFORMER “Sepultura”
INDEX 01 37:59:00
TRACK 10 AUDIO
TITLE “Cyber God”
PERFORMER “Sepultura”
INDEX 01 40:46:38
TRACK 11 AUDIO
TITLE “Chosen Skin”
PERFORMER “Sepultura”
INDEX 01 46:09:00
TRACK 12 AUDIO
TITLE “Ultraseven No Uta”
PERFORMER “Sepultura”
INDEX 01 49:26:28


Spread the Download

Leave a Reply

Your email address will not be published. Required fields are marked *

Enter the text from the image below
 

This site uses Akismet to reduce spam. Learn how your comment data is processed.