Sepultura – Live Voltage




No Cover available

Artist: Sepultura
Year: 1992
Genre: Metal
Notes: Discogs
Add. Notes:
Watch Songs on: YouTube
Cover incl.: Yes
Encoder: FLAC
Bitrate: ~900 kBit/s (44.1 kHz/16 Bit/s)
Log & Cue incl.: Yes/Yes
Size: 428 MB
Password: “slam” (without ” “)


All Downloads/Hosters are compatible

Download 1
KatFile.com
Turbobit.net
Rapidgator.net
FileFactory.com
Download 2
KatFile.com
Turbobit.net
Rapidgator.net
FileFactory.com

Tracklist:

1 Mass Hypnosis 
2 Dead Embryonic Cells 
3 Desperate Cry 
4 Troops Of Doom 
5 Altered State 
6 Slaves Of Pain 
7 Under Siege (Regnum Irae) 
8 Orgasmatron 
9 Beneath The Remains 
10 Policia 
11 Inner Self 
12 Slaves Of Pain 
13 Beneath The Remains 
14 Sarcastic Existence

EAC-Log, CUE-Sheed & NFO:

Click to open spoiler
Exact Audio Copy V1.0 beta 3 from 29. August 2011

EAC extraction logfile from 25. June 2014, 13:09

Sepultura / Live Voltage (Metal Crash MECD 2070)

Used drive : PIONEER DVD-RW DVR-215 Adapter: 0 ID: 0

Read mode : Secure
Utilize accurate stream : Yes
Defeat audio cache : Yes
Make use of C2 pointers : No

Read offset correction : 48
Overread into Lead-In and Lead-Out : No
Fill up missing offset samples with silence : Yes
Delete leading and trailing silent blocks : No
Null samples used in CRC calculations : Yes
Used interface : Native Win32 interface for Win NT & 2000

Used output format : User Defined Encoder
Selected bitrate : 1024 kBit/s
Quality : High
Add ID3 tag : No
Command line compressor : C:\Program Files (x86)\Exact Audio Copy\Flac\flac.exe
Additional command line options : -V -8 -T “Date=%year%” -T “Genre=%genre%” %source%

TOC of the extracted CD

Track | Start | Length | Start sector | End sector
———————————————————
1 | 0:00.33 | 5:04.00 | 33 | 22832
2 | 5:04.33 | 4:01.00 | 22833 | 40907
3 | 9:05.33 | 5:50.00 | 40908 | 67157
4 | 14:55.33 | 2:52.00 | 67158 | 80057
5 | 17:47.33 | 4:56.00 | 80058 | 102257
6 | 22:43.33 | 5:20.00 | 102258 | 126257
7 | 28:03.33 | 4:33.00 | 126258 | 146732
8 | 32:36.33 | 4:45.50 | 146733 | 168157
9 | 37:22.08 | 4:30.25 | 168158 | 188432
10 | 41:52.33 | 2:32.00 | 188433 | 199832
11 | 44:24.33 | 3:05.00 | 199833 | 213707
12 | 47:29.33 | 4:16.25 | 213708 | 232932
13 | 51:45.58 | 4:51.50 | 232933 | 254807
14 | 56:37.33 | 4:20.00 | 254808 | 274307

Range status and errors

Selected range

Filename C:\CDRip by Deminbek\Sepultura – Live Voltage (Metal Crash MECD 2070).wav

Peak level 99.9 %
Extraction speed 7.4 X
Range quality 100.0 %
Test CRC 673D4D53
Copy CRC 673D4D53
Copy OK

No errors occurred

AccurateRip summary

Track 1 not present in database
Track 2 not present in database
Track 3 not present in database
Track 4 not present in database
Track 5 not present in database
Track 6 not present in database
Track 7 not present in database
Track 8 not present in database
Track 9 not present in database
Track 10 not present in database
Track 11 not present in database
Track 12 not present in database
Track 13 not present in database
Track 14 not present in database

None of the tracks are present in the AccurateRip database

End of status report

==== Log checksum DC6A36BC4A57FC5A669BAA0A8A846A8E4871BCAD09446D8406723400ADCADF7F ====

REM GENRE “Thrash Metal”
REM DATE 1992
REM DISCID DC0E490E
REM COMMENT “ExactAudioCopy v1.0b3”
PERFORMER “Sepultura”
TITLE “Live Voltage (Metal Crash MECD 2070)”
FILE “Sepultura – Live Voltage (Metal Crash MECD 2070).flac” WAVE
TRACK 01 AUDIO
TITLE “Mass Hypnosis”
PERFORMER “Sepultura”
INDEX 00 00:00:00
INDEX 01 00:00:33
TRACK 02 AUDIO
TITLE “Dead Embryonic Cells”
PERFORMER “Sepultura”
INDEX 01 05:04:33
TRACK 03 AUDIO
TITLE “Desperate Cry”
PERFORMER “Sepultura”
INDEX 01 09:05:33
TRACK 04 AUDIO
TITLE “Troops Of doom”
PERFORMER “Sepultura”
INDEX 01 14:55:33
TRACK 05 AUDIO
TITLE “Altered State”
PERFORMER “Sepultura”
INDEX 01 17:47:33
TRACK 06 AUDIO
TITLE “Slaves Of Pain”
PERFORMER “Sepultura”
INDEX 01 22:43:33
TRACK 07 AUDIO
TITLE “Under Siege (Regnum Irae)”
PERFORMER “Sepultura”
INDEX 01 28:03:33
TRACK 08 AUDIO
TITLE “Orgasmarion”
PERFORMER “Sepultura”
INDEX 01 32:36:33
TRACK 09 AUDIO
TITLE “Beneath The Remains”
PERFORMER “Sepultura”
INDEX 01 37:22:08
TRACK 10 AUDIO
TITLE “Policia”
PERFORMER “Sepultura”
INDEX 01 41:52:33
TRACK 11 AUDIO
TITLE “Inner Self”
PERFORMER “Sepultura”
INDEX 01 44:24:33
TRACK 12 AUDIO
TITLE “Slaves Of pain”
PERFORMER “Sepultura”
INDEX 01 47:29:33
TRACK 13 AUDIO
TITLE “Beneath The Remains”
PERFORMER “Sepultura”
INDEX 01 51:45:58
TRACK 14 AUDIO
TITLE “Sarcastic Existence”
PERFORMER “Sepultura”
INDEX 01 56:37:33


0

Publication author

offline 8 hours

Chaos

3
Comments: 4Publics: 3424Registration: 02-02-2019
Spread the Download

Leave a Reply

Your email address will not be published. Required fields are marked *

Enter the text from the image below
 

This site uses Akismet to reduce spam. Learn how your comment data is processed.