Sepultura – Live In São Paulo




Artist: Sepultura
Year: 2005
Genre: Hardcore
Notes: Discogs
Add. Notes:
Cover incl.: Yes
Encoder: FLAC
Bitrate: ~1000 kBit/s (44.1 kHz/16 Bit/s)
Log & Cue incl.: Yes
Size: 560 MB
Password: “slam” (without ” “)


All Downloads/Hosters are compatible

Download 1
KatFile.com
Turbobit.net
FileFactory.com
Rapidgator.net
Download 2
KatFile.com
Turbobit.net
FileFactory.com
Rapidgator.net

Tracklist:

1-1 - Intro - 4:34
1-2 - Apes Of God - 3:29
1-3 - Slave New World - 2:35
1-4 - Propaganda - 3:06
1-5 - Attitude - 4:44
1-6 - Choke - 3:19
1-7 - Inner Self / Beneath The 
Remains - 5:01
1-8 - Escape To The Void - 4:35
1-9 - Mindwar - 2:56
1-10 - Troops Of Doom - 3:33
1-11 - Necromancer - 3:59

2-1 - Sepulnation - 3:55
2-2 - Refuse / Resist - 3:07
2-3 - Territory - 4:30
2-4 - Black Steel In The Hour Of 
Chaos - 3:52
2-5 - Bullet The Blue Sky - 4:02
2-6 - Reza - 3:06
2-7 - Biotech Is Godzilla - 2:40
2-8 - Arise / Dead Embryonic Cells - 
4:26
2-9 - Come Back Alive - 2:24
2-10 - Roots Bloody Roots - 4:38

EAC-Log, CUE-Sheed & NFO:

Click to open spoiler
EAC extraction logfile from 17. December 2005, 23:53 for CD
Sepultura / Live in Sao Paulo

Used drive : HL-DT-STRW/DVD GCC-4521B Adapter: 0 ID: 1
Read mode : Secure with NO C2, accurate stream, disable cache
Read offset correction : 6
Overread into Lead-In and Lead-Out : No

Used output format : C:\Archivos de programa\Exact Audio Copy\MAC.EXE (Monkey’s Audio Lossless Encoder)
High Lossless Compression

Other options :
Fill up missing offset samples with silence : Yes
Delete leading and trailing silent blocks : No
Native Win32 interface for Win NT & 2000

Range status and errors
Selected range
Filename C:\Documents and Settings\a1\Mis documentos\Mi música\esteban\Live in Sao Paulo cd1.wav

Peak level 98.8 %
Range quality 100.0 %
CRC F30EDBB4
Copy OK

No errors occured

End of status report

EAC extraction logfile from 18. December 2005, 0:06 for CD
Sepultura / Live in Sao Paulo CD 2

Used drive : HL-DT-STRW/DVD GCC-4521B Adapter: 0 ID: 1
Read mode : Secure with NO C2, accurate stream, disable cache
Read offset correction : 6
Overread into Lead-In and Lead-Out : No

Used output format : C:\Archivos de programa\Exact Audio Copy\MAC.EXE (Monkey’s Audio Lossless Encoder)
High Lossless Compression

Other options :
Fill up missing offset samples with silence : Yes
Delete leading and trailing silent blocks : No
Native Win32 interface for Win NT & 2000

Range status and errors
Selected range
Filename C:\Documents and Settings\a1\Mis documentos\Mi música\esteban\Sepultura.[2005].[2cd].Live in Sao Paulo.[EAC-APE].By.esteban69.[MeTaLMaDNeSS.TeaM]\Live in Sao Paulo cd2.wav

Peak level 98.8 %
Range quality 99.9 %
CRC E61734D9
Copy OK

No errors occured

End of status report

REM GENRE “Thrash Metal”
REM DATE 2005
PERFORMER “Sepultura”
TITLE “Live in Sao Paulo”
FILE “Sepultura – Live in Sao Paulo CD1.flac” WAVE
TRACK 01 AUDIO
TITLE “Intro”
PERFORMER “Sepultura”
INDEX 01 00:00:00
TRACK 02 AUDIO
TITLE “Apes of God”
PERFORMER “Sepultura”
INDEX 01 04:51:27
TRACK 03 AUDIO
TITLE “Slave New World”
PERFORMER “Sepultura”
INDEX 01 08:02:43
TRACK 04 AUDIO
TITLE “Propaganda”
PERFORMER “Sepultura”
INDEX 01 10:40:38
TRACK 05 AUDIO
TITLE “Attitude”
PERFORMER “Sepultura”
INDEX 01 13:44:31
TRACK 06 AUDIO
TITLE “Choke”
PERFORMER “Sepultura”
INDEX 01 18:33:18
TRACK 07 AUDIO
TITLE “Innerself / Beneath the Remains”
PERFORMER “Sepultura”
INDEX 01 22:00:51
TRACK 08 AUDIO
TITLE “Escape to the Void”
PERFORMER “Sepultura”
INDEX 01 26:56:38
TRACK 09 AUDIO
TITLE “Mindwar”
PERFORMER “Sepultura”
INDEX 01 31:26:36
TRACK 10 AUDIO
TITLE “Troops of Doom”
PERFORMER “Sepultura”
INDEX 01 34:43:22
TRACK 11 AUDIO
TITLE “Necromancer”
PERFORMER “Sepultura”
INDEX 01 38:23:14

REM GENRE “Thrash Metal”
REM DATE 2005
PERFORMER “Sepultura”
TITLE “Live in Sao Paulo CD 2”
FILE “Sepultura – Live in Sao Paulo CD2.flac” WAVE
TRACK 01 AUDIO
TITLE “Sepulnation”
PERFORMER “Sepultura”
INDEX 01 00:00:00
TRACK 02 AUDIO
TITLE “Refuse / Resist”
PERFORMER “Sepultura”
INDEX 01 03:52:61
TRACK 03 AUDIO
TITLE “Territory”
PERFORMER “Sepultura”
INDEX 01 07:00:15
TRACK 04 AUDIO
TITLE “Black steel in the hour of chaos”
PERFORMER “Sepultura”
INDEX 01 11:31:09
TRACK 05 AUDIO
TITLE “Bullet the blue sky”
PERFORMER “Sepultura”
INDEX 01 15:20:58
TRACK 06 AUDIO
TITLE “Reza”
PERFORMER “Sepultura”
INDEX 01 20:19:53
TRACK 07 AUDIO
TITLE “Biotech is Godzilla”
PERFORMER “Sepultura”
INDEX 01 22:27:73
TRACK 08 AUDIO
TITLE “Arise / Dead embryonic cells”
PERFORMER “Sepultura”
INDEX 01 25:09:26
TRACK 09 AUDIO
TITLE “Come back alive”
PERFORMER “Sepultura”
INDEX 01 29:38:17
TRACK 10 AUDIO
TITLE “Roots bloody roots”
PERFORMER “Sepultura”
INDEX 01 31:57:01


Leave a Reply

Your email address will not be published. Required fields are marked *

Enter the text from the image below
 

This site uses Akismet to reduce spam. Learn how your comment data is processed.