Sepultura – Kairos (Limited Edition)




Artist: Sepultura
Year: 2011
Genre: Metal
Notes: Discogs
Add. Notes: Limited Edition
Cover incl.: Yes
Encoder: FLAC
Bitrate: ~1000 kBit/s (44.1 kHz/16 Bit/s)
Log & Cue incl.: Yes
Size: 401 MB
Password: “slam” (without ” “)


All Downloads/Hosters are compatible

Download 1
KatFile.com
Turbobit.net
Rapidgator.net
Download 2
KatFile.com
Turbobit.net
Rapidgator.net

Tracklist:

1 - Spectrum - 4:00
2 - Kairos - 3:35
3 - Relentless - 3:35
4 - 2011 - 0:29
5 - Just One Fix - 3:30
6 - Dialog - 4:54
7 - Mask - 4:29
8 - 1433 - 0:30
9 - Seethe - 2:24
10 - Born Strong - 4:37
11 - Embrace The Storm - 3:30
12 - 5772 - 0:27
13 - No One Will Stand - 3:15
14 - Structure Violence (Azzes) - 
5:37
15 - 4648 - 0:28
Bonus Tracks
16 - Firestarter - 4:30
17 - Point Of No Return - 3:24

EAC-Log, CUE-Sheed & NFO:

Click to open spoiler
Exact Audio Copy V1.0 beta 1 from 15. November 2010

EAC extraction logfile from 2. July 2011, 8:31

Sepultura / Kairos

Used drive : HL-DT-STDVDRAM GE20LU11 Adapter: 1 ID: 0

Read mode : Secure
Utilize accurate stream : Yes
Defeat audio cache : Yes
Make use of C2 pointers : No

Read offset correction : 667
Overread into Lead-In and Lead-Out : No
Fill up missing offset samples with silence : Yes
Delete leading and trailing silent blocks : No
Null samples used in CRC calculations : Yes
Used interface : Native Win32 interface for Win NT & 2000

Used output format : User Defined Encoder
Selected bitrate : 1024 kBit/s
Quality : High
Add ID3 tag : No
Command line compressor : C:\Program Files\Exact Audio Copy\FLAC\FLAC.EXE
Additional command line options : -6 -V -T “ARTIST=%a” -T “TITLE=%t” -T “ALBUM=%g” -T “DATE=%y” -T “TRACKNUMBER=%n” -T “GENRE=%m” -T “COMMENT=%e” %j–picture=”%i”%j %s -o %d

TOC of the extracted CD

Track | Start | Length | Start sector | End sector
———————————————————
1 | 0:00.00 | 4:01.00 | 0 | 18074
2 | 4:01.00 | 3:35.50 | 18075 | 34249
3 | 7:36.50 | 3:34.65 | 34250 | 50364
4 | 11:11.40 | 0:28.46 | 50365 | 52510
5 | 11:40.11 | 3:31.15 | 52511 | 68350
6 | 15:11.26 | 4:55.25 | 68351 | 90500
7 | 20:06.51 | 4:29.08 | 90501 | 110683
8 | 24:35.59 | 0:29.39 | 110684 | 112897
9 | 25:05.23 | 2:25.29 | 112898 | 123801
10 | 27:30.52 | 4:38.25 | 123802 | 144676
11 | 32:09.02 | 3:30.03 | 144677 | 160429
12 | 35:39.05 | 0:26.74 | 160430 | 162453
13 | 36:06.04 | 3:15.20 | 162454 | 177098
14 | 39:21.24 | 5:37.21 | 177099 | 202394
15 | 44:58.45 | 0:27.49 | 202395 | 204468
16 | 45:26.19 | 4:30.52 | 204469 | 224770
17 | 49:56.71 | 3:24.02 | 224771 | 240072

Range status and errors

Selected range

Filename F:\Downloads\METAL\Sepultura\2011-Kairos\2011-Kairos(flac)\Sepultura – Kairos.wav

Peak level 98.7 %
Extraction speed 0.1 X
Range quality 100.0 %
Test CRC DB7012BD
Copy CRC DB7012BD
Copy OK

No errors occurred

AccurateRip summary

Track 1 not present in database
Track 2 not present in database
Track 3 not present in database
Track 4 not present in database
Track 5 not present in database
Track 6 not present in database
Track 7 not present in database
Track 8 not present in database
Track 9 not present in database
Track 10 not present in database
Track 11 not present in database
Track 12 not present in database
Track 13 not present in database
Track 14 not present in database
Track 15 not present in database
Track 16 not present in database
Track 17 not present in database

None of the tracks are present in the AccurateRip database

End of status report

REM GENRE “Thrash Metal”
REM DATE 2011
REM DISCID E80C8011
REM COMMENT “ExactAudioCopy v1.0b1”
PERFORMER “Sepultura”
TITLE “Kairos”
FILE “Sepultura – Kairos.flac” WAVE
TRACK 01 AUDIO
TITLE “Spectrum”
PERFORMER “Sepultura”
INDEX 01 00:00:00
TRACK 02 AUDIO
TITLE “Kairos”
PERFORMER “Sepultura”
INDEX 00 04:00:00
INDEX 01 04:01:00
TRACK 03 AUDIO
TITLE “Relentless”
PERFORMER “Sepultura”
INDEX 00 07:35:50
INDEX 01 07:36:50
TRACK 04 AUDIO
TITLE “2011”
PERFORMER “Sepultura”
INDEX 01 11:11:40
TRACK 05 AUDIO
TITLE “Just One Fix (Ministry Cover)”
PERFORMER “Sepultura”
INDEX 01 11:40:11
TRACK 06 AUDIO
TITLE “Dialog”
PERFORMER “Sepultura”
INDEX 00 15:10:27
INDEX 01 15:11:26
TRACK 07 AUDIO
TITLE “Mask”
PERFORMER “Sepultura”
INDEX 00 20:05:51
INDEX 01 20:06:51
TRACK 08 AUDIO
TITLE “1433”
PERFORMER “Sepultura”
INDEX 01 24:35:59
TRACK 09 AUDIO
TITLE “Seethe”
PERFORMER “Sepultura”
INDEX 01 25:05:23
TRACK 10 AUDIO
TITLE “Born Strong”
PERFORMER “Sepultura”
INDEX 00 27:29:52
INDEX 01 27:30:52
TRACK 11 AUDIO
TITLE “Embrace The Storm”
PERFORMER “Sepultura”
INDEX 00 32:08:03
INDEX 01 32:09:02
TRACK 12 AUDIO
TITLE “5772”
PERFORMER “Sepultura”
INDEX 01 35:39:05
TRACK 13 AUDIO
TITLE “No One Will Stand”
PERFORMER “Sepultura”
INDEX 01 36:06:04
TRACK 14 AUDIO
TITLE “Structure Violence (Azzes)”
PERFORMER “Sepultura”
INDEX 01 39:21:24
TRACK 15 AUDIO
TITLE “4648”
PERFORMER “Sepultura”
INDEX 01 44:58:45
TRACK 16 AUDIO
TITLE “Firestarter (Prodigy Cover)”
PERFORMER “Sepultura”
INDEX 01 45:26:19
TRACK 17 AUDIO
TITLE “Point Of No Return”
PERFORMER “Sepultura”
INDEX 00 49:55:72
INDEX 01 49:56:71


Leave a Reply

Your email address will not be published. Required fields are marked *

This site uses Akismet to reduce spam. Learn how your comment data is processed.