Sepultura – Dante XXI (Promo)




No Cover available

Artist: Sepultura
Year: 2006
Genre: Metal
Notes: Discogs
Add. Notes: Promo
Watch Songs on: YouTube
Cover incl.: Yes
Encoder: FLAC
Bitrate: ~1000 kBit/s (44.1 kHz/16 Bit/s)
Log & Cue incl.: Yes/Yes
Size: 289,3 MB
Password: “slam” (without ” “)


All Downloads/Hosters are compatible

Download 1
KatFile.com
Turbobit.net
FileFactory.com
Rapidgator.net
Download 2
KatFile.com
Turbobit.net
FileFactory.com
Rapidgator.net

Tracklist:

1 Intro #4 0:59
2 Dark Wood Of Error 2:18
3 Convicted In Life 3:10
4 City Of Dis 3:27
5 False 3:34
6 Fighting On 4:29
7 Intro #2 0:45
8 Ostia 3:06
9 Buried Words 2:35
10 Nuclear Seven 3:44
11 Repeating The Horror 3:12
12 Intro #1 0:13
13 Crown And Miter 2:11
14 Intro #3 0:30
15 Still Flame 4:50

EAC-Log, CUE-Sheed & NFO:

Click to open spoiler
Exact Audio Copy V1.0 beta 3 from 29. August 2011

EAC extraction logfile from 30. May 2014, 16:48

Sepultura / Dante XXI [Steamhammer, SPV 80000982, Germany]

Used drive : MATSHITABD-MLT UJ240AS Adapter: 0 ID: 1

Read mode : Secure
Utilize accurate stream : Yes
Defeat audio cache : Yes
Make use of C2 pointers : No

Read offset correction : 103
Overread into Lead-In and Lead-Out : No
Fill up missing offset samples with silence : Yes
Delete leading and trailing silent blocks : No
Null samples used in CRC calculations : Yes
Used interface : Installed external ASPI interface

Used output format : User Defined Encoder
Selected bitrate : 1024 kBit/s
Quality : High
Add ID3 tag : No
Command line compressor : C:\Program Files (x86)\Exact Audio Copy\FLAC\FLAC.EXE
Additional command line options : -V -8 -T “Date=%year%” -T “Genre=%genre%” %source%

TOC of the extracted CD

Track | Start | Length | Start sector | End sector
———————————————————
1 | 0:00.00 | 0:59.22 | 0 | 4446
2 | 0:59.22 | 2:18.51 | 4447 | 14847
3 | 3:17.73 | 3:09.05 | 14848 | 29027
4 | 6:27.03 | 3:27.01 | 29028 | 44553
5 | 9:54.04 | 3:34.26 | 44554 | 60629
6 | 13:28.30 | 4:29.25 | 60630 | 80829
7 | 17:57.55 | 0:44.30 | 80830 | 84159
8 | 18:42.10 | 3:06.44 | 84160 | 98153
9 | 21:48.54 | 2:34.59 | 98154 | 109762
10 | 24:23.38 | 3:44.07 | 109763 | 126569
11 | 28:07.45 | 3:11.60 | 126570 | 140954
12 | 31:19.30 | 0:12.49 | 140955 | 141903
13 | 31:32.04 | 2:11.12 | 141904 | 151740
14 | 33:43.16 | 0:29.65 | 151741 | 153980
15 | 34:13.06 | 4:50.44 | 153981 | 175774

Range status and errors

Selected range

Filename C:\CDRip by Deminbek\Sepultura – Dante XXI [Steamhammer, SPV 80000982, Germany].wav

Peak level 100.0 %
Extraction speed 3.7 X
Range quality 100.0 %
Test CRC 9070C7BE
Copy CRC 9070C7BE
Copy OK

No errors occurred

AccurateRip summary

Track 1 accurately ripped (confidence 11) [42970EE0] (AR v2)
Track 2 accurately ripped (confidence 11) [DADDA059] (AR v2)
Track 3 accurately ripped (confidence 11) [D4E28474] (AR v2)
Track 4 accurately ripped (confidence 11) [DC027FFF] (AR v2)
Track 5 accurately ripped (confidence 11) [A2BD25C5] (AR v2)
Track 6 accurately ripped (confidence 11) [B4F118A1] (AR v2)
Track 7 accurately ripped (confidence 11) [52D2A745] (AR v2)
Track 8 accurately ripped (confidence 11) [2A4E259D] (AR v2)
Track 9 accurately ripped (confidence 11) [311A5741] (AR v2)
Track 10 accurately ripped (confidence 11) [ABEA557D] (AR v2)
Track 11 accurately ripped (confidence 11) [38621997] (AR v2)
Track 12 accurately ripped (confidence 11) [D303B125] (AR v2)
Track 13 accurately ripped (confidence 11) [37B3A858] (AR v2)
Track 14 accurately ripped (confidence 11) [69FBAA2C] (AR v2)
Track 15 accurately ripped (confidence 11) [1D861647] (AR v2)

All tracks accurately ripped

End of status report

—- CUETools DB Plugin V2.1.4

[CTDB TOCID: Ma_ZeRVCLqdGwH6m55FsXEiiLAA-] found
Submit result: Ma_ZeRVCLqdGwH6m55FsXEiiLAA- has been confirmed
Track | CTDB Status
1 | (31/31) Accurately ripped
2 | (31/31) Accurately ripped
3 | (31/31) Accurately ripped
4 | (31/31) Accurately ripped
5 | (31/31) Accurately ripped
6 | (31/31) Accurately ripped
7 | (31/31) Accurately ripped
8 | (30/31) Accurately ripped
9 | (31/31) Accurately ripped
10 | (31/31) Accurately ripped
11 | (31/31) Accurately ripped
12 | (31/31) Accurately ripped
13 | (31/31) Accurately ripped
14 | (31/31) Accurately ripped
15 | (31/31) Accurately ripped

==== Log checksum AA9FF41AA75C55CB5F10D6180592A006AFF6CB81B324D41FC86F63849B184FFF ====

REM GENRE “Thrash Metal”
REM DATE 2006
REM DISCID D009270F
REM COMMENT “ExactAudioCopy v1.0b3”
PERFORMER “Sepultura”
TITLE “Dante XXI [Steamhammer, SPV 80000982, Germany]”
FILE “Sepultura – Dante XXI [Steamhammer, SPV 80000982, Germany].flac” WAVE
TRACK 01 AUDIO
TITLE “Lost (intro)”
PERFORMER “Sepultura”
ISRC DEA450509330
FLAGS DCP
INDEX 01 00:00:00
TRACK 02 AUDIO
TITLE “Dark Wood of Error”
PERFORMER “Sepultura”
ISRC DEA450509340
FLAGS DCP
INDEX 01 00:59:22
TRACK 03 AUDIO
TITLE “Convicted in Life”
PERFORMER “Sepultura”
ISRC DEA450509350
FLAGS DCP
INDEX 01 03:17:73
TRACK 04 AUDIO
TITLE “City of Dis”
PERFORMER “Sepultura”
ISRC DEA450509360
FLAGS DCP
INDEX 01 06:27:03
TRACK 05 AUDIO
TITLE “False”
PERFORMER “Sepultura”
ISRC DEA450509370
FLAGS DCP
INDEX 01 09:54:04
TRACK 06 AUDIO
TITLE “Fighting On”
PERFORMER “Sepultura”
ISRC DEA450509380
FLAGS DCP
INDEX 01 13:28:30
TRACK 07 AUDIO
TITLE “Limbo (intro)”
PERFORMER “Sepultura”
ISRC DEA450509390
FLAGS DCP
INDEX 01 17:57:55
TRACK 08 AUDIO
TITLE “Ostia”
PERFORMER “Sepultura”
ISRC DEA450509400
FLAGS DCP
INDEX 01 18:42:10
TRACK 09 AUDIO
TITLE “Buried Words”
PERFORMER “Sepultura”
ISRC DEA450509410
FLAGS DCP
INDEX 01 21:48:54
TRACK 10 AUDIO
TITLE “Nuclear Seven”
PERFORMER “Sepultura”
ISRC DEA450509420
FLAGS DCP
INDEX 01 24:23:38
TRACK 11 AUDIO
TITLE “Repeating the Horror”
PERFORMER “Sepultura”
ISRC DEA450509430
FLAGS DCP
INDEX 01 28:07:45
TRACK 12 AUDIO
TITLE “Eunoe (intro)”
PERFORMER “Sepultura”
ISRC DEA450509440
FLAGS DCP
INDEX 01 31:19:30
TRACK 13 AUDIO
TITLE “Crown and Miter”
PERFORMER “Sepultura”
ISRC DEA450509450
FLAGS DCP
INDEX 01 31:32:04
TRACK 14 AUDIO
TITLE “Primium Mobile (intro)”
PERFORMER “Sepultura”
ISRC DEA450509460
FLAGS DCP
INDEX 01 33:43:16
TRACK 15 AUDIO
TITLE “Still Flame”
PERFORMER “Sepultura”
ISRC DEA450509470
FLAGS DCP
INDEX 01 34:13:06


Leave a Reply

Your email address will not be published. Required fields are marked *

Enter the text from the image below
 

This site uses Akismet to reduce spam. Learn how your comment data is processed.