Sepultura – Dante XXI (Japanese Edition)




Artist: Sepultura
Year: 2006
Genre: Metal
Notes: Discogs
Add. Notes: Japanese Edition
Cover incl.: Yes
Encoder: FLAC
Bitrate: ~1000 kBit/s (44.1 kHz/16 Bit/s)
Log & Cue incl.: Yes
Size: 496,5 MB
Password: “slam” (without ” “)


All Downloads/Hosters are compatible

Download 1
KatFile.com
Turbobit.net
FileFactory.com
Rapidgator.net
Download 2
KatFile.com
Turbobit.net
FileFactory.com
Rapidgator.net

Tracklist:

1 Lost (Intro) 
2 Dark Wood Of Error 
3 Convicted In Life 
4 City Of Dis 
5 False 
6 Fighting On 
7 Limbo (Intro) 
8 Ostia 
9 Buried Words 
10 Nuclear Seven 
11 Repeating The Horror 
12 EunoƩ (Intro) 
13 Crown And Miter 
14 Primium Mobile (Intro) 
15 Still Flame 
Bonus Track:
16 Screaming For Vengeance

EAC-Log, CUE-Sheed & NFO:

Click to open spoiler
Exact Audio Copy V1.3 from 2. September 2016

EAC extraction logfile from 28. June 2017, 16:34

SEPULTURA / DANTE XXI

Used drive : TSSTcorpBDDVDW SE-506BB Adapter: 2 ID: 1

Read mode : Secure
Utilize accurate stream : Yes
Defeat audio cache : Yes
Make use of C2 pointers : No

Read offset correction : 6
Overread into Lead-In and Lead-Out : No
Fill up missing offset samples with silence : Yes
Delete leading and trailing silent blocks : No
Null samples used in CRC calculations : Yes
Used interface : Installed external ASPI interface

Used output format : User Defined Encoder
Selected bitrate : 768 kBit/s
Quality : High
Add ID3 tag : No
Command line compressor : C:\Progs\wavpack\wavpack.exe
Additional command line options : -h -d %source%

TOC of the extracted CD

Track | Start | Length | Start sector | End sector
———————————————————
1 | 0:00.00 | 0:59.30 | 0 | 4454
2 | 0:59.30 | 2:18.50 | 4455 | 14854
3 | 3:18.05 | 3:09.05 | 14855 | 29034
4 | 6:27.10 | 3:27.00 | 29035 | 44559
5 | 9:54.10 | 3:34.28 | 44560 | 60637
6 | 13:28.38 | 4:29.12 | 60638 | 80824
7 | 17:57.50 | 0:44.43 | 80825 | 84167
8 | 18:42.18 | 3:06.42 | 84168 | 98159
9 | 21:48.60 | 2:34.60 | 98160 | 109769
10 | 24:23.45 | 3:44.08 | 109770 | 126577
11 | 28:07.53 | 3:11.60 | 126578 | 140962
12 | 31:19.38 | 0:12.47 | 140963 | 141909
13 | 31:32.10 | 2:11.00 | 141910 | 151734
14 | 33:43.10 | 0:30.00 | 151735 | 153984
15 | 34:13.10 | 4:52.50 | 153985 | 175934
16 | 39:05.60 | 3:31.50 | 175935 | 191809

Range status and errors

Selected range

Filename E:\SEPULTURA – DANTE XXI.wav

Peak level 100.0 %
Extraction speed 1.8 X
Range quality 100.0 %
Test CRC 502658C4
Copy CRC 502658C4
Copy OK

No errors occurred

AccurateRip summary

Track 1 accurately ripped (confidence 3) [B5EDE69F] (AR v2)
Track 2 accurately ripped (confidence 3) [BEBB9679] (AR v2)
Track 3 accurately ripped (confidence 3) [4980FD2D] (AR v2)
Track 4 accurately ripped (confidence 3) [9BBD76E2] (AR v2)
Track 5 accurately ripped (confidence 3) [E9654FEC] (AR v2)
Track 6 accurately ripped (confidence 3) [65ED404A] (AR v2)
Track 7 accurately ripped (confidence 3) [B7440A7A] (AR v2)
Track 8 accurately ripped (confidence 3) [2DA3D39A] (AR v2)
Track 9 accurately ripped (confidence 3) [7BA94D5D] (AR v2)
Track 10 accurately ripped (confidence 3) [B3799B24] (AR v2)
Track 11 accurately ripped (confidence 3) [4C871111] (AR v2)
Track 12 accurately ripped (confidence 3) [7823E949] (AR v2)
Track 13 accurately ripped (confidence 3) [C93D5E38] (AR v2)
Track 14 accurately ripped (confidence 3) [98F3A01C] (AR v2)
Track 15 accurately ripped (confidence 3) [0EA6EABA] (AR v2)
Track 16 accurately ripped (confidence 3) [81DE2F1C] (AR v2)

All tracks accurately ripped

End of status report

—- CUETools DB Plugin V2.1.6

[CTDB TOCID: kFBM7Ho54bQvS4ZnK3jlwkPUPfI-] found
Submit result: kFBM7Ho54bQvS4ZnK3jlwkPUPfI- has been confirmed
Track | CTDB Status
1 | (7/7) Accurately ripped
2 | (7/7) Accurately ripped
3 | (7/7) Accurately ripped
4 | (7/7) Accurately ripped
5 | (7/7) Accurately ripped
6 | (7/7) Accurately ripped
7 | (7/7) Accurately ripped
8 | (6/7) Accurately ripped
9 | (6/7) Accurately ripped
10 | (7/7) Accurately ripped
11 | (7/7) Accurately ripped
12 | (7/7) Accurately ripped
13 | (7/7) Accurately ripped
14 | (7/7) Accurately ripped
15 | (7/7) Accurately ripped
16 | (7/7) Accurately ripped

==== Log checksum 1C2F342197121178130ED6BC5EB5FFFE5F47D67F14C246BD52E7C9CE52C4732C ====

REM GENRE “Thrash Metal”
REM DATE 2006
REM DISCID CF09FD10
REM COMMENT “ExactAudioCopy v1.3”
CATALOG 4988002501779
PERFORMER “Sepultura”
TITLE “Dante XXI”
REM COMPOSER “”
FILE “Sepultura – Dante XXI.flac” WAVE
TRACK 01 AUDIO
TITLE “Lost (intro)”
PERFORMER “Sepultura”
REM COMPOSER “”
INDEX 01 00:00:00
TRACK 02 AUDIO
TITLE “Dark Wood Of Error”
PERFORMER “Sepultura”
REM COMPOSER “”
INDEX 01 00:59:30
TRACK 03 AUDIO
TITLE “Convicted In Life”
PERFORMER “Sepultura”
REM COMPOSER “”
INDEX 01 03:18:05
TRACK 04 AUDIO
TITLE “City Of Dis”
PERFORMER “Sepultura”
REM COMPOSER “”
INDEX 01 06:27:10
TRACK 05 AUDIO
TITLE “False”
PERFORMER “Sepultura”
REM COMPOSER “”
INDEX 01 09:54:10
TRACK 06 AUDIO
TITLE “Fighting On”
PERFORMER “Sepultura”
REM COMPOSER “”
INDEX 01 13:28:38
TRACK 07 AUDIO
TITLE “Limbo (intro)”
PERFORMER “Sepultura”
REM COMPOSER “”
INDEX 00 17:55:29
INDEX 01 17:57:50
TRACK 08 AUDIO
TITLE “Ostia”
PERFORMER “Sepultura”
REM COMPOSER “”
INDEX 01 18:42:18
TRACK 09 AUDIO
TITLE “Buried Words”
PERFORMER “Sepultura”
REM COMPOSER “”
INDEX 01 21:48:60
TRACK 10 AUDIO
TITLE “Nuclear Seven”
PERFORMER “Sepultura”
REM COMPOSER “”
INDEX 01 24:23:45
TRACK 11 AUDIO
TITLE “Repeating The Horror”
PERFORMER “Sepultura”
REM COMPOSER “”
INDEX 01 28:07:53
TRACK 12 AUDIO
TITLE “Eunoe (intro)”
PERFORMER “Sepultura”
REM COMPOSER “”
INDEX 01 31:19:38
TRACK 13 AUDIO
TITLE “Crown And Miter”
PERFORMER “Sepultura”
REM COMPOSER “”
INDEX 01 31:32:10
TRACK 14 AUDIO
TITLE “Primium Mobile (intro)”
PERFORMER “Sepultura”
REM COMPOSER “”
INDEX 00 33:42:24
INDEX 01 33:43:10
TRACK 15 AUDIO
TITLE “Still Flame”
PERFORMER “Sepultura”
REM COMPOSER “”
INDEX 01 34:13:10
TRACK 16 AUDIO
TITLE “Screaming For Vengeance (Bonus Track)”
PERFORMER “Sepultura”
REM COMPOSER “”
INDEX 00 39:03:51
INDEX 01 39:05:60


Leave a Reply

Your email address will not be published. Required fields are marked *

Enter the text from the image below
 

This site uses Akismet to reduce spam. Learn how your comment data is processed.