Sepultura – Chaos A.D.




Artist: Sepultura
Year: 1993/2017
Genre: Rock
Notes: Discogs
Add. Notes:
Cover incl.: Yes
Encoder: FLAC
Bitrate: ~1000 kBit/s (44.1 kHz/16 Bit/s)
Log & Cue incl.: Yes
Size: 774,65 MB
Password: “slam” (without ” “)


All Downloads/Hosters are compatible

Download 1
Turbobit.net
Rapidgator.net
KatFile.com
UploadRar.com
Download 2
Turbobit.net
Rapidgator.net
KatFile.com
UploadRar.com
Download 3
Turbobit.net
Rapidgator.net
KatFile.com
UploadRar.com

Tracklist:

I Chaos A.D. (2017 Remaster)
1-1. Refuse / Resist. 3:19
1-2. Territory. 4:47
1-3. Slave New World. 2:54
1-4. Amen. 4:27
1-5. Kaiowas. 3:45
1-6. Propaganda. 3:32
1-7. Biotech Is Godzilla. 1:52
1-8. Nomad. 4:58
1-9. We Who Are Not As Others. 3:42
1-10. Manifest. 4:49
1-11. The Hunt. 3:58
1-12. Clenched Fist. 5:01
II Bonus Tracks
Studio Recordings & Rehearsals
2-1. Chaos B.C.. 5:12
2-2. Symptom Of The Universe. 4:15
2-3. Inhuman Nature. 3:08
2-4. Policia. 1:46
2-5. Crucificados Pelo Sistema. 1:04
2-6. Clenched Fist (Instrumental Writing Session Ver. 1). 
1:52
2-7. Propaganda (Instrumental Writing Session). 3:24
2-8. Clenched Fist (Instrumental Writing Session Ver. 2). 
2:52
Live In Minneapolis (1994)
2-9. Refuse / Resist. 3:50
2-10. Slave New World. 3:06
2-11. Propaganda. 3:25
2-12. Beneath The Remains / Escape To The Void. 3:48
2-13. Kaiowas. 2:18
2-14. Clenched Fist. 3:38
2-15. Biotech Is Godzilla. 2:08
2-16. Territory. 4:48
2-17. Amen / Inner Self. 8:43

EAC-Log, CUE-Sheed & NFO:

Click to open spoiler
X Lossless Decoder version 20170729 (150.3)

XLD extraction logfile from 2018-03-31 16:32:42 +0100

Sepultura / Chaos A.D. (2017 Remaster)

Used drive : HL-DT-ST BD-RE BP40NS20 (revision ML04)
Media type : Pressed CD

Ripper mode : XLD Secure Ripper
Disable audio cache : OK for the drive with a cache less than 1375KiB
Make use of C2 pointers : NO
Read offset correction : 667
Max retry count : 20
Gap status : Analyzed, Appended (except HTOA)

TOC of the extracted CD
Track | Start | Length | Start sector | End sector
———————————————————
1 | 00:00:00 | 03:19:06 | 0 | 14930
2 | 03:19:06 | 04:47:00 | 14931 | 36455
3 | 08:06:06 | 02:54:57 | 36456 | 49562
4 | 11:00:63 | 04:27:00 | 49563 | 69587
5 | 15:27:63 | 03:45:58 | 69588 | 86520
6 | 19:13:46 | 03:32:66 | 86521 | 102486
7 | 22:46:37 | 01:52:17 | 102487 | 110903
8 | 24:38:54 | 04:58:52 | 110904 | 133305
9 | 29:37:31 | 03:42:14 | 133306 | 149969
10 | 33:19:45 | 04:49:05 | 149970 | 171649
11 | 38:08:50 | 03:58:65 | 171650 | 189564
12 | 42:07:40 | 05:01:50 | 189565 | 212189

AccurateRip Summary (DiscID: 0014401b-00bdaadc-a00b0d0c)
Track 01 : OK (v2, confidence 2/2)
Track 02 : OK (v2, confidence 2/2)
Track 03 : OK (v2, confidence 2/2)
Track 04 : OK (v2, confidence 2/2)
Track 05 : OK (v2, confidence 2/2)
Track 06 : OK (v2, confidence 2/2)
Track 07 : OK (v2, confidence 2/2)
Track 08 : OK (v2, confidence 2/2)
Track 09 : OK (v2, confidence 2/2)
Track 10 : OK (v2, confidence 2/2)
Track 11 : OK (v2, confidence 2/2)
Track 12 : OK (v2, confidence 2/2)
->All tracks accurately ripped.

All Tracks
Album gain : -9.44 dB
Peak : 0.998383
Statistics
Read error : 0
Jitter error (maybe fixed) : 0
Retry sector count : 0
Damaged sector count : 0

Track 01
Filename : /Volumes/250 SSD/TMP Files/Music Files/Chaos A.D. (2017 Remaster) (1993)/01 – Refuse – Resist.flac
/Volumes/250 SSD/TMP Files/Music Files/Chaos A.D. (2017 Remaster) (1993)/01 – Refuse – Resist.m4a
Pre-gap length : 00:02:00

Track gain : -10.22 dB
Peak : 0.975220
CRC32 hash (test run) : 88770C1F
CRC32 hash : 88770C1F
CRC32 hash (skip zero) : 821EDA1F
AccurateRip v1 signature : C77C6BA5
AccurateRip v2 signature : 972CBAF4
->Accurately ripped (v2, confidence 2/2)
Statistics
Read error : 0
Jitter error (maybe fixed) : 0
Retry sector count : 0
Damaged sector count : 0

Track 02
Filename : /Volumes/250 SSD/TMP Files/Music Files/Chaos A.D. (2017 Remaster) (1993)/02 – Territory.flac
/Volumes/250 SSD/TMP Files/Music Files/Chaos A.D. (2017 Remaster) (1993)/02 – Territory.m4a

Track gain : -10.66 dB
Peak : 0.998383
CRC32 hash (test run) : 0C41771F
CRC32 hash : 0C41771F
CRC32 hash (skip zero) : 53A50F06
AccurateRip v1 signature : 4F7898B9
AccurateRip v2 signature : 789BFF1E
->Accurately ripped (v2, confidence 2/2)
Statistics
Read error : 0
Jitter error (maybe fixed) : 0
Retry sector count : 0
Damaged sector count : 0

Track 03
Filename : /Volumes/250 SSD/TMP Files/Music Files/Chaos A.D. (2017 Remaster) (1993)/03 – Slave New World.flac
/Volumes/250 SSD/TMP Files/Music Files/Chaos A.D. (2017 Remaster) (1993)/03 – Slave New World.m4a

Track gain : -10.07 dB
Peak : 0.983185
CRC32 hash (test run) : F74DC92B
CRC32 hash : F74DC92B
CRC32 hash (skip zero) : A27B5321
AccurateRip v1 signature : EEA37FB5
AccurateRip v2 signature : B469F9AD
->Accurately ripped (v2, confidence 2/2)
Statistics
Read error : 0
Jitter error (maybe fixed) : 0
Retry sector count : 0
Damaged sector count : 0

Track 04
Filename : /Volumes/250 SSD/TMP Files/Music Files/Chaos A.D. (2017 Remaster) (1993)/04 – Amen.flac
/Volumes/250 SSD/TMP Files/Music Files/Chaos A.D. (2017 Remaster) (1993)/04 – Amen.m4a

Track gain : -8.68 dB
Peak : 0.994415
CRC32 hash (test run) : 1CC9A28F
CRC32 hash : 1CC9A28F
CRC32 hash (skip zero) : 1E375615
AccurateRip v1 signature : A58C3A08
AccurateRip v2 signature : 99FB0668
->Accurately ripped (v2, confidence 2/2)
Statistics
Read error : 0
Jitter error (maybe fixed) : 0
Retry sector count : 0
Damaged sector count : 0

Track 05
Filename : /Volumes/250 SSD/TMP Files/Music Files/Chaos A.D. (2017 Remaster) (1993)/05 – Kaiowas.flac
/Volumes/250 SSD/TMP Files/Music Files/Chaos A.D. (2017 Remaster) (1993)/05 – Kaiowas.m4a

Track gain : -4.92 dB
Peak : 0.972900
CRC32 hash (test run) : 93A4BAA1
CRC32 hash : 93A4BAA1
CRC32 hash (skip zero) : 5DB72B67
AccurateRip v1 signature : E811A7D6
AccurateRip v2 signature : CEBD4FE0
->Accurately ripped (v2, confidence 2/2)
Statistics
Read error : 0
Jitter error (maybe fixed) : 0
Retry sector count : 0
Damaged sector count : 0

Track 06
Filename : /Volumes/250 SSD/TMP Files/Music Files/Chaos A.D. (2017 Remaster) (1993)/06 – Propaganda.flac
/Volumes/250 SSD/TMP Files/Music Files/Chaos A.D. (2017 Remaster) (1993)/06 – Propaganda.m4a

Track gain : -9.25 dB
Peak : 0.988495
CRC32 hash (test run) : 057B7B4D
CRC32 hash : 057B7B4D
CRC32 hash (skip zero) : B642817A
AccurateRip v1 signature : 2C2D8C26
AccurateRip v2 signature : 06E4DA2F
->Accurately ripped (v2, confidence 2/2)
Statistics
Read error : 0
Jitter error (maybe fixed) : 0
Retry sector count : 0
Damaged sector count : 0

Track 07
Filename : /Volumes/250 SSD/TMP Files/Music Files/Chaos A.D. (2017 Remaster) (1993)/07 – Biotech Is Godzilla.flac
/Volumes/250 SSD/TMP Files/Music Files/Chaos A.D. (2017 Remaster) (1993)/07 – Biotech Is Godzilla.m4a

Track gain : -9.95 dB
Peak : 0.986694
CRC32 hash (test run) : 4B11E488
CRC32 hash : 4B11E488
CRC32 hash (skip zero) : 6435BB90
AccurateRip v1 signature : B936E1E7
AccurateRip v2 signature : 1788299A
->Accurately ripped (v2, confidence 2/2)
Statistics
Read error : 0
Jitter error (maybe fixed) : 0
Retry sector count : 0
Damaged sector count : 0

Track 08
Filename : /Volumes/250 SSD/TMP Files/Music Files/Chaos A.D. (2017 Remaster) (1993)/08 – Nomad.flac
/Volumes/250 SSD/TMP Files/Music Files/Chaos A.D. (2017 Remaster) (1993)/08 – Nomad.m4a

Track gain : -8.80 dB
Peak : 0.987854
CRC32 hash (test run) : 9CA5D265
CRC32 hash : 9CA5D265
CRC32 hash (skip zero) : 88E5652B
AccurateRip v1 signature : 89B60BC8
AccurateRip v2 signature : BA1B4C9F
->Accurately ripped (v2, confidence 2/2)
Statistics
Read error : 0
Jitter error (maybe fixed) : 0
Retry sector count : 0
Damaged sector count : 0

Track 09
Filename : /Volumes/250 SSD/TMP Files/Music Files/Chaos A.D. (2017 Remaster) (1993)/09 – We Who Are Not As Others.flac
/Volumes/250 SSD/TMP Files/Music Files/Chaos A.D. (2017 Remaster) (1993)/09 – We Who Are Not As Others.m4a

Track gain : -8.84 dB
Peak : 0.978973
CRC32 hash (test run) : 48D63DA4
CRC32 hash : 48D63DA4
CRC32 hash (skip zero) : 7600A898
AccurateRip v1 signature : 8ED1A64B
AccurateRip v2 signature : AD3595D2
->Accurately ripped (v2, confidence 2/2)
Statistics
Read error : 0
Jitter error (maybe fixed) : 0
Retry sector count : 0
Damaged sector count : 0

Track 10
Filename : /Volumes/250 SSD/TMP Files/Music Files/Chaos A.D. (2017 Remaster) (1993)/10 – Manifest.flac
/Volumes/250 SSD/TMP Files/Music Files/Chaos A.D. (2017 Remaster) (1993)/10 – Manifest.m4a

Track gain : -8.95 dB
Peak : 0.987000
CRC32 hash (test run) : A4BF7EC2
CRC32 hash : A4BF7EC2
CRC32 hash (skip zero) : F4AEDFA3
AccurateRip v1 signature : 0BC5DEDB
AccurateRip v2 signature : E0CDD633
->Accurately ripped (v2, confidence 2/2)
Statistics
Read error : 0
Jitter error (maybe fixed) : 0
Retry sector count : 0
Damaged sector count : 0

Track 11
Filename : /Volumes/250 SSD/TMP Files/Music Files/Chaos A.D. (2017 Remaster) (1993)/11 – The Hunt.flac
/Volumes/250 SSD/TMP Files/Music Files/Chaos A.D. (2017 Remaster) (1993)/11 – The Hunt.m4a

Track gain : -9.24 dB
Peak : 0.986725
CRC32 hash (test run) : 3281C9EC
CRC32 hash : 3281C9EC
CRC32 hash (skip zero) : 8E276BDE
AccurateRip v1 signature : 9599179B
AccurateRip v2 signature : 07E1FE51
->Accurately ripped (v2, confidence 2/2)
Statistics
Read error : 0
Jitter error (maybe fixed) : 0
Retry sector count : 0
Damaged sector count : 0

Track 12
Filename : /Volumes/250 SSD/TMP Files/Music Files/Chaos A.D. (2017 Remaster) (1993)/12 – Clenched Fist.flac
/Volumes/250 SSD/TMP Files/Music Files/Chaos A.D. (2017 Remaster) (1993)/12 – Clenched Fist.m4a

Track gain : -9.59 dB
Peak : 0.986267
CRC32 hash (test run) : 80FECD68
CRC32 hash : 80FECD68
CRC32 hash (skip zero) : 685FDAC6
AccurateRip v1 signature : 9A59CFFE
AccurateRip v2 signature : 4A790E7D
->Accurately ripped (v2, confidence 2/2)
Statistics
Read error : 0
Jitter error (maybe fixed) : 0
Retry sector count : 0
Damaged sector count : 0

No errors occurred

End of status report

—–BEGIN XLD SIGNATURE—–
iDKdasev7n9nP9H3UtgILTZihbe6JQNrVEQUl_IfHGY78SiXTqad26EcuqzljQkJf9dRd7GECbdTBM10.Fs6hUaCLKH56fQx6kXltPy
—–END XLD SIGNATURE—–

X Lossless Decoder version 20170729 (150.3)

XLD extraction logfile from 2018-04-01 13:06:46 +0100

Sepultura / Chaos A.D. (2017 Remaster)

Used drive : HL-DT-ST BD-RE BP40NS20 (revision ML04)
Media type : Pressed CD

Ripper mode : XLD Secure Ripper
Disable audio cache : OK for the drive with a cache less than 1375KiB
Make use of C2 pointers : NO
Read offset correction : 667
Max retry count : 20
Gap status : Analyzed, Appended (except HTOA)

TOC of the extracted CD
Track | Start | Length | Start sector | End sector
———————————————————
1 | 00:00:00 | 05:12:49 | 0 | 23448
2 | 05:12:49 | 04:15:19 | 23449 | 42592
3 | 09:27:68 | 03:08:72 | 42593 | 56764
4 | 12:36:65 | 01:46:65 | 56765 | 64779
5 | 14:23:55 | 01:04:56 | 64780 | 69635
6 | 15:28:36 | 01:52:53 | 69636 | 78088
7 | 17:21:14 | 03:24:71 | 78089 | 93459
8 | 20:46:10 | 02:52:11 | 93460 | 106370
9 | 23:38:21 | 03:50:16 | 106371 | 123636
10 | 27:28:37 | 03:06:62 | 123637 | 137648
11 | 30:35:24 | 03:25:68 | 137649 | 153091
12 | 34:01:17 | 03:48:45 | 153092 | 170236
13 | 37:49:62 | 02:18:62 | 170237 | 180648
14 | 40:08:49 | 03:38:24 | 180649 | 197022
15 | 43:46:73 | 02:08:62 | 197023 | 206684
16 | 45:55:60 | 04:48:02 | 206685 | 228286
17 | 50:43:62 | 08:43:58 | 228287 | 267569

AccurateRip Summary (DiscID: 002191a4-01a66de0-dd0def11)
Track 01 : OK (v2, confidence 2/2)
Track 02 : OK (v2, confidence 2/2)
Track 03 : OK (v2, confidence 2/2)
Track 04 : OK (v2, confidence 2/2)
Track 05 : OK (v2, confidence 2/2)
Track 06 : OK (v2, confidence 2/2)
Track 07 : OK (v2, confidence 2/2)
Track 08 : OK (v2, confidence 2/2)
Track 09 : OK (v2, confidence 2/2)
Track 10 : OK (v2, confidence 2/2)
Track 11 : OK (v2, confidence 2/2)
Track 12 : OK (v2, confidence 2/2)
Track 13 : OK (v2, confidence 2/2)
Track 14 : OK (v2, confidence 2/2)
Track 15 : OK (v2, confidence 2/2)
Track 16 : OK (v2, confidence 2/2)
Track 17 : OK (v2, confidence 2/2)
->All tracks accurately ripped.

All Tracks
Album gain : -9.68 dB
Peak : 0.988647
Statistics
Read error : 0
Jitter error (maybe fixed) : 0
Retry sector count : 0
Damaged sector count : 0

Track 01
Filename : /Volumes/250 SSD/TMP Files/Music Files/Chaos A.D. (2017 Remaster) (1993)/01 – Chaos BC.flac
/Volumes/250 SSD/TMP Files/Music Files/Chaos A.D. (2017 Remaster) (1993)/01 – Chaos BC.m4a
Pre-gap length : 00:02:00

Track gain : -8.45 dB
Peak : 0.988647
CRC32 hash (test run) : 1859D6AA
CRC32 hash : 1859D6AA
CRC32 hash (skip zero) : 7A2345F9
AccurateRip v1 signature : B41E6A6F
AccurateRip v2 signature : 4FC3B6A2
->Accurately ripped (v2, confidence 2/2)
Statistics
Read error : 0
Jitter error (maybe fixed) : 0
Retry sector count : 0
Damaged sector count : 0

Track 02
Filename : /Volumes/250 SSD/TMP Files/Music Files/Chaos A.D. (2017 Remaster) (1993)/02 – Symptom of the Universe.flac
/Volumes/250 SSD/TMP Files/Music Files/Chaos A.D. (2017 Remaster) (1993)/02 – Symptom of the Universe.m4a

Track gain : -9.62 dB
Peak : 0.988617
CRC32 hash (test run) : CDED1644
CRC32 hash : CDED1644
CRC32 hash (skip zero) : 37ECFAC7
AccurateRip v1 signature : 1B717754
AccurateRip v2 signature : 16F24992
->Accurately ripped (v2, confidence 2/2)
Statistics
Read error : 0
Jitter error (maybe fixed) : 0
Retry sector count : 0
Damaged sector count : 0

Track 03
Filename : /Volumes/250 SSD/TMP Files/Music Files/Chaos A.D. (2017 Remaster) (1993)/03 – Inhuman Nature.flac
/Volumes/250 SSD/TMP Files/Music Files/Chaos A.D. (2017 Remaster) (1993)/03 – Inhuman Nature.m4a

Track gain : -9.27 dB
Peak : 0.988586
CRC32 hash (test run) : A9C90CC9
CRC32 hash : A9C90CC9
CRC32 hash (skip zero) : 2CD0F679
AccurateRip v1 signature : CA1FE8B2
AccurateRip v2 signature : C4DBE53C
->Accurately ripped (v2, confidence 2/2)
Statistics
Read error : 0
Jitter error (maybe fixed) : 0
Retry sector count : 0
Damaged sector count : 0

Track 04
Filename : /Volumes/250 SSD/TMP Files/Music Files/Chaos A.D. (2017 Remaster) (1993)/04 – Polícia.flac
/Volumes/250 SSD/TMP Files/Music Files/Chaos A.D. (2017 Remaster) (1993)/04 – Polícia.m4a

Track gain : -9.73 dB
Peak : 0.988617
CRC32 hash (test run) : DF99354A
CRC32 hash : DF99354A
CRC32 hash (skip zero) : 57FCBF93
AccurateRip v1 signature : 9FE8503D
AccurateRip v2 signature : 1A352111
->Accurately ripped (v2, confidence 2/2)
Statistics
Read error : 0
Jitter error (maybe fixed) : 0
Retry sector count : 0
Damaged sector count : 0

Track 05
Filename : /Volumes/250 SSD/TMP Files/Music Files/Chaos A.D. (2017 Remaster) (1993)/05 – Crucificados Pelo Sistema.flac
/Volumes/250 SSD/TMP Files/Music Files/Chaos A.D. (2017 Remaster) (1993)/05 – Crucificados Pelo Sistema.m4a

Track gain : -9.95 dB
Peak : 0.988556
CRC32 hash (test run) : AA3B7060
CRC32 hash : AA3B7060
CRC32 hash (skip zero) : 396CEF71
AccurateRip v1 signature : 602F32A9
AccurateRip v2 signature : 7D4F8F10
->Accurately ripped (v2, confidence 2/2)
Statistics
Read error : 0
Jitter error (maybe fixed) : 0
Retry sector count : 0
Damaged sector count : 0

Track 06
Filename : /Volumes/250 SSD/TMP Files/Music Files/Chaos A.D. (2017 Remaster) (1993)/06 – Clenched Fist (instrumental version 1).flac
/Volumes/250 SSD/TMP Files/Music Files/Chaos A.D. (2017 Remaster) (1993)/06 – Clenched Fist (instrumental version 1).m4a

Track gain : -8.23 dB
Peak : 0.988586
CRC32 hash (test run) : 734C1752
CRC32 hash : 734C1752
CRC32 hash (skip zero) : 33C1A8BD
AccurateRip v1 signature : 85A371E5
AccurateRip v2 signature : F32F80AC
->Accurately ripped (v2, confidence 2/2)
Statistics
Read error : 0
Jitter error (maybe fixed) : 0
Retry sector count : 0
Damaged sector count : 0

Track 07
Filename : /Volumes/250 SSD/TMP Files/Music Files/Chaos A.D. (2017 Remaster) (1993)/07 – Propaganda (instrumnetal).flac
/Volumes/250 SSD/TMP Files/Music Files/Chaos A.D. (2017 Remaster) (1993)/07 – Propaganda (instrumnetal).m4a

Track gain : -8.22 dB
Peak : 0.988617
CRC32 hash (test run) : E6006244
CRC32 hash : E6006244
CRC32 hash (skip zero) : 315992E4
AccurateRip v1 signature : 60F49144
AccurateRip v2 signature : CC465070
->Accurately ripped (v2, confidence 2/2)
Statistics
Read error : 0
Jitter error (maybe fixed) : 0
Retry sector count : 0
Damaged sector count : 0

Track 08
Filename : /Volumes/250 SSD/TMP Files/Music Files/Chaos A.D. (2017 Remaster) (1993)/08 – Clenched Fist (instrumental version 2).flac
/Volumes/250 SSD/TMP Files/Music Files/Chaos A.D. (2017 Remaster) (1993)/08 – Clenched Fist (instrumental version 2).m4a

Track gain : -8.16 dB
Peak : 0.988586
CRC32 hash (test run) : 4472C9FD
CRC32 hash : 4472C9FD
CRC32 hash (skip zero) : 04EDC9DA
AccurateRip v1 signature : 4C7B32E9
AccurateRip v2 signature : 12C4874C
->Accurately ripped (v2, confidence 2/2)
Statistics
Read error : 0
Jitter error (maybe fixed) : 0
Retry sector count : 0
Damaged sector count : 0

Track 09
Filename : /Volumes/250 SSD/TMP Files/Music Files/Chaos A.D. (2017 Remaster) (1993)/09 – Refuse / Resist (Live in Minneapolis 1994).flac
/Volumes/250 SSD/TMP Files/Music Files/Chaos A.D. (2017 Remaster) (1993)/09 – Refuse / Resist (Live in Minneapolis 1994).m4a

Track gain : -9.91 dB
Peak : 0.988617
CRC32 hash (test run) : 8DE13C6F
CRC32 hash : 8DE13C6F
CRC32 hash (skip zero) : 9FAC6166
AccurateRip v1 signature : 1D52AAA4
AccurateRip v2 signature : D02D3AA1
->Accurately ripped (v2, confidence 2/2)
Statistics
Read error : 0
Jitter error (maybe fixed) : 0
Retry sector count : 0
Damaged sector count : 0

Track 10
Filename : /Volumes/250 SSD/TMP Files/Music Files/Chaos A.D. (2017 Remaster) (1993)/10 – Slave New World (Live in Minneapolis 1994).flac
/Volumes/250 SSD/TMP Files/Music Files/Chaos A.D. (2017 Remaster) (1993)/10 – Slave New World (Live in Minneapolis 1994).m4a

Track gain : -9.32 dB
Peak : 0.988617
CRC32 hash (test run) : 899F0892
CRC32 hash : 899F0892
CRC32 hash (skip zero) : C0DDD1B6
AccurateRip v1 signature : 356FBAAF
AccurateRip v2 signature : E9C4D90D
->Accurately ripped (v2, confidence 2/2)
Statistics
Read error : 0
Jitter error (maybe fixed) : 0
Retry sector count : 0
Damaged sector count : 0

Track 11
Filename : /Volumes/250 SSD/TMP Files/Music Files/Chaos A.D. (2017 Remaster) (1993)/11 – Propaganda (Live in Minneapolis 1994).flac
/Volumes/250 SSD/TMP Files/Music Files/Chaos A.D. (2017 Remaster) (1993)/11 – Propaganda (Live in Minneapolis 1994).m4a

Track gain : -9.28 dB
Peak : 0.988617
CRC32 hash (test run) : CDC31014
CRC32 hash : CDC31014
CRC32 hash (skip zero) : AB43D102
AccurateRip v1 signature : 2397F209
AccurateRip v2 signature : FB10FF60
->Accurately ripped (v2, confidence 2/2)
Statistics
Read error : 0
Jitter error (maybe fixed) : 0
Retry sector count : 0
Damaged sector count : 0

Track 12
Filename : /Volumes/250 SSD/TMP Files/Music Files/Chaos A.D. (2017 Remaster) (1993)/12 – Beneath The Remains / Escape to the Void (Live in Minneapolis 1994).flac
/Volumes/250 SSD/TMP Files/Music Files/Chaos A.D. (2017 Remaster) (1993)/12 – Beneath The Remains / Escape to the Void (Live in Minneapolis 1994).m4a

Track gain : -9.37 dB
Peak : 0.988647
CRC32 hash (test run) : 4C90A015
CRC32 hash : 4C90A015
CRC32 hash (skip zero) : 53F43914
AccurateRip v1 signature : 29567689
AccurateRip v2 signature : 032DE0D0
->Accurately ripped (v2, confidence 2/2)
Statistics
Read error : 0
Jitter error (maybe fixed) : 0
Retry sector count : 0
Damaged sector count : 0

Track 13
Filename : /Volumes/250 SSD/TMP Files/Music Files/Chaos A.D. (2017 Remaster) (1993)/13 – Kaiowas (Live in Minneapolis 1994).flac
/Volumes/250 SSD/TMP Files/Music Files/Chaos A.D. (2017 Remaster) (1993)/13 – Kaiowas (Live in Minneapolis 1994).m4a

Track gain : -9.44 dB
Peak : 0.988617
CRC32 hash (test run) : 00D14054
CRC32 hash : 00D14054
CRC32 hash (skip zero) : 65ED2982
AccurateRip v1 signature : 541B82EA
AccurateRip v2 signature : 13F432F2
->Accurately ripped (v2, confidence 2/2)
Statistics
Read error : 0
Jitter error (maybe fixed) : 0
Retry sector count : 0
Damaged sector count : 0

Track 14
Filename : /Volumes/250 SSD/TMP Files/Music Files/Chaos A.D. (2017 Remaster) (1993)/14 – Clenched Fist (Live in Minneapolis 1994).flac
/Volumes/250 SSD/TMP Files/Music Files/Chaos A.D. (2017 Remaster) (1993)/14 – Clenched Fist (Live in Minneapolis 1994).m4a

Track gain : -10.48 dB
Peak : 0.988617
CRC32 hash (test run) : 076B2E55
CRC32 hash : 076B2E55
CRC32 hash (skip zero) : 314942F3
AccurateRip v1 signature : F4493807
AccurateRip v2 signature : D2A5ECAE
->Accurately ripped (v2, confidence 2/2)
Statistics
Read error : 0
Jitter error (maybe fixed) : 0
Retry sector count : 0
Damaged sector count : 0

Track 15
Filename : /Volumes/250 SSD/TMP Files/Music Files/Chaos A.D. (2017 Remaster) (1993)/15 – Biotech Is Godzilla (Live in Minneapolis 1994).flac
/Volumes/250 SSD/TMP Files/Music Files/Chaos A.D. (2017 Remaster) (1993)/15 – Biotech Is Godzilla (Live in Minneapolis 1994).m4a

Track gain : -9.88 dB
Peak : 0.988617
CRC32 hash (test run) : 0987FDA2
CRC32 hash : 0987FDA2
CRC32 hash (skip zero) : E044C641
AccurateRip v1 signature : 1FB92D8A
AccurateRip v2 signature : A06FDADA
->Accurately ripped (v2, confidence 2/2)
Statistics
Read error : 0
Jitter error (maybe fixed) : 0
Retry sector count : 0
Damaged sector count : 0

Track 16
Filename : /Volumes/250 SSD/TMP Files/Music Files/Chaos A.D. (2017 Remaster) (1993)/16 – Territory (Live in Minneapolis 1994).flac
/Volumes/250 SSD/TMP Files/Music Files/Chaos A.D. (2017 Remaster) (1993)/16 – Territory (Live in Minneapolis 1994).m4a

Track gain : -10.16 dB
Peak : 0.988617
CRC32 hash (test run) : E48374F1
CRC32 hash : E48374F1
CRC32 hash (skip zero) : 1D86C57E
AccurateRip v1 signature : 5E695D13
AccurateRip v2 signature : C69D3A79
->Accurately ripped (v2, confidence 2/2)
Statistics
Read error : 0
Jitter error (maybe fixed) : 0
Retry sector count : 0
Damaged sector count : 0

Track 17
Filename : /Volumes/250 SSD/TMP Files/Music Files/Chaos A.D. (2017 Remaster) (1993)/17 – Amen / Inner Self (Live in Minneapolis 1994).flac
/Volumes/250 SSD/TMP Files/Music Files/Chaos A.D. (2017 Remaster) (1993)/17 – Amen / Inner Self (Live in Minneapolis 1994).m4a

Track gain : -9.69 dB
Peak : 0.988647
CRC32 hash (test run) : E64C6E46
CRC32 hash : E64C6E46
CRC32 hash (skip zero) : E3EE3412
AccurateRip v1 signature : F7F00CC2
AccurateRip v2 signature : 87B41CA7
->Accurately ripped (v2, confidence 2/2)
Statistics
Read error : 0
Jitter error (maybe fixed) : 0
Retry sector count : 0
Damaged sector count : 0

No errors occurred

End of status report

—–BEGIN XLD SIGNATURE—–
57QJr1poMuYDo1em8I2lV0K4Zki4qGqDc_lImot44xboQ4XkqVYLNHjLAC2vi0_SkMUHlrZCL51Vaz2dGs.FSU0BkKmxvVK5T_iMQpy
—–END XLD SIGNATURE—–

TITLE “Chaos A.D. (2017 Remaster)”
PERFORMER “Sepultura”
CATALOG 0081227934255
REM GENRE “Metal”
REM DATE “1993”
REM DISCNUMBER 1
REM TOTALDISCS 2
REM DISCID A00B0D0C
REM REPLAYGAIN_ALBUM_GAIN -9.44 dB
REM REPLAYGAIN_ALBUM_PEAK 0.998383
FILE “01 – Refuse – Resist.flac” WAVE
TRACK 01 AUDIO
TITLE “Refuse – Resist”
PERFORMER “Sepultura”
SONGWRITER “Andreas Kisser/Igor Cavalera/Paulo Jr./Paulo Pinto Jr/Max Cavalera”
ISRC USRH11701930
REM REPLAYGAIN_TRACK_GAIN -10.22 dB
REM REPLAYGAIN_TRACK_PEAK 0.975220
INDEX 01 00:00:00
FILE “02 – Territory.flac” WAVE
TRACK 02 AUDIO
TITLE “Territory”
PERFORMER “Sepultura”
SONGWRITER “Paulo Pinto Jr. (Paulo Jr.)/Andreas Kisser/Igor Cavalera/Max Cavalera”
ISRC USRH11701931
REM REPLAYGAIN_TRACK_GAIN -10.66 dB
REM REPLAYGAIN_TRACK_PEAK 0.998383
INDEX 01 00:00:00
FILE “03 – Slave New World.flac” WAVE
TRACK 03 AUDIO
TITLE “Slave New World”
PERFORMER “Sepultura”
SONGWRITER “Andreas Kisser/Paulo Pinto Jr. (Paulo Jr.)/Max Cavalera/Igor Cavalera”
ISRC USRH11701932
REM REPLAYGAIN_TRACK_GAIN -10.07 dB
REM REPLAYGAIN_TRACK_PEAK 0.983185
INDEX 01 00:00:00
FILE “04 – Amen.flac” WAVE
TRACK 04 AUDIO
TITLE “Amen”
PERFORMER “Sepultura”
SONGWRITER “Igor Cavalera/Max Cavalera/Andreas Kisser/Paulo Pinto Jr”
ISRC USRH11701933
REM REPLAYGAIN_TRACK_GAIN -8.68 dB
REM REPLAYGAIN_TRACK_PEAK 0.994415
INDEX 01 00:00:00
FILE “05 – Kaiowas.flac” WAVE
TRACK 05 AUDIO
TITLE “Kaiowas”
PERFORMER “Sepultura”
SONGWRITER “Igor Cavalera/Andreas Kisser/Max Cavalera/Paulo Pinto Jr”
ISRC USRH11701934
REM REPLAYGAIN_TRACK_GAIN -4.92 dB
REM REPLAYGAIN_TRACK_PEAK 0.972900
INDEX 01 00:00:00
FILE “06 – Propaganda.flac” WAVE
TRACK 06 AUDIO
TITLE “Propaganda”
PERFORMER “Sepultura”
SONGWRITER “Andreas Kisser/Max Cavalera/Paulo Pinto Jr/Igor Cavalera”
ISRC USRH11701935
REM REPLAYGAIN_TRACK_GAIN -9.25 dB
REM REPLAYGAIN_TRACK_PEAK 0.988495
INDEX 01 00:00:00
FILE “07 – Biotech Is Godzilla.flac” WAVE
TRACK 07 AUDIO
TITLE “Biotech Is Godzilla”
PERFORMER “Sepultura”
SONGWRITER “Andreas Kisser / Igor Cavalera / Derrick Green”
ISRC USRH11701936
REM REPLAYGAIN_TRACK_GAIN -9.95 dB
REM REPLAYGAIN_TRACK_PEAK 0.986694
INDEX 01 00:00:00
FILE “08 – Nomad.flac” WAVE
TRACK 08 AUDIO
TITLE “Nomad”
PERFORMER “Sepultura”
SONGWRITER “Andreas Kisser / Igor Cavalera / Derrick Green”
ISRC USRH11701937
REM REPLAYGAIN_TRACK_GAIN -8.80 dB
REM REPLAYGAIN_TRACK_PEAK 0.987854
INDEX 01 00:00:00
FILE “09 – We Who Are Not As Others.flac” WAVE
TRACK 09 AUDIO
TITLE “We Who Are Not As Others”
PERFORMER “Sepultura”
SONGWRITER “Igor Cavalera/Paulo Jr. Cavalera/Max Cavalera/Andreas Kisser/Paulo Pinto Jr”
ISRC USRH11701938
REM REPLAYGAIN_TRACK_GAIN -8.84 dB
REM REPLAYGAIN_TRACK_PEAK 0.978973
INDEX 01 00:00:00
FILE “10 – Manifest.flac” WAVE
TRACK 10 AUDIO
TITLE “Manifest”
PERFORMER “Sepultura”
SONGWRITER “Andreas Kisser/Paulo Pinto Jr/Igor Cavalera/Max Cavalera”
ISRC USRH11701939
REM REPLAYGAIN_TRACK_GAIN -8.95 dB
REM REPLAYGAIN_TRACK_PEAK 0.987000
INDEX 01 00:00:00
FILE “11 – The Hunt.flac” WAVE
TRACK 11 AUDIO
TITLE “The Hunt”
PERFORMER “Sepultura”
SONGWRITER “Robert Heaton/Justin Sullivan”
ISRC USRH11701940
REM REPLAYGAIN_TRACK_GAIN -9.24 dB
REM REPLAYGAIN_TRACK_PEAK 0.986725
INDEX 01 00:00:00
FILE “12 – Clenched Fist.flac” WAVE
TRACK 12 AUDIO
TITLE “Clenched Fist”
PERFORMER “Sepultura”
SONGWRITER “Andreas Kisser/Igor Cavalera/Max Cavalera/Paulo Pinto Jr”
ISRC USRH11701941
REM REPLAYGAIN_TRACK_GAIN -9.59 dB
REM REPLAYGAIN_TRACK_PEAK 0.986267
INDEX 01 00:00:00

TITLE “Chaos A.D. (2017 Remaster)”
PERFORMER “Sepultura”
CATALOG 0081227934255
REM GENRE “Thrash Metal”
REM DATE “1993”
REM DISCNUMBER 2
REM TOTALDISCS 2
REM DISCID DD0DEF11
REM REPLAYGAIN_ALBUM_GAIN -9.68 dB
REM REPLAYGAIN_ALBUM_PEAK 0.988647
REM COMPILATION TRUE
FILE “01 – Chaos BC.flac” WAVE
TRACK 01 AUDIO
TITLE “Chaos BC”
PERFORMER “Sepultura”
SONGWRITER “Andreas Kisser/Paulo Pinto Jr/Max Cavalera/Igor Cavalera”
ISRC USRH11701942
REM REPLAYGAIN_TRACK_GAIN -8.45 dB
REM REPLAYGAIN_TRACK_PEAK 0.988647
INDEX 01 00:00:00
FILE “02 – Symptom of the Universe.flac” WAVE
TRACK 02 AUDIO
TITLE “Symptom of the Universe”
PERFORMER “Sepultura”
ISRC USRH11701943
REM REPLAYGAIN_TRACK_GAIN -9.62 dB
REM REPLAYGAIN_TRACK_PEAK 0.988617
INDEX 01 00:00:00
FILE “03 – Inhuman Nature.flac” WAVE
TRACK 03 AUDIO
TITLE “Inhuman Nature”
PERFORMER “Sepultura”
SONGWRITER “Ron Martinez”
ISRC USRH11701944
REM REPLAYGAIN_TRACK_GAIN -9.27 dB
REM REPLAYGAIN_TRACK_PEAK 0.988586
INDEX 01 00:00:00
FILE “04 – Polícia.flac” WAVE
TRACK 04 AUDIO
TITLE “Polícia”
PERFORMER “Sepultura”
SONGWRITER “Toni Belloto”
ISRC USRH11701945
REM REPLAYGAIN_TRACK_GAIN -9.73 dB
REM REPLAYGAIN_TRACK_PEAK 0.988617
INDEX 01 00:00:00
FILE “05 – Crucificados Pelo Sistema.flac” WAVE
TRACK 05 AUDIO
TITLE “Crucificados Pelo Sistema”
PERFORMER “Sepultura”
SONGWRITER “Jao/Jaba/Gordo”
ISRC USRH11701946
REM REPLAYGAIN_TRACK_GAIN -9.95 dB
REM REPLAYGAIN_TRACK_PEAK 0.988556
INDEX 01 00:00:00
FILE “06 – Clenched Fist (instrumental version 1).flac” WAVE
TRACK 06 AUDIO
TITLE “Clenched Fist (instrumental version 1)”
PERFORMER “Sepultura”
SONGWRITER “Andreas Kisser/Max Cavalera/Paulo Pinto Jr/Igor Cavalera”
ISRC USRH11701947
REM REPLAYGAIN_TRACK_GAIN -8.23 dB
REM REPLAYGAIN_TRACK_PEAK 0.988586
INDEX 01 00:00:00
FILE “07 – Propaganda (instrumnetal).flac” WAVE
TRACK 07 AUDIO
TITLE “Propaganda (instrumnetal)”
PERFORMER “Sepultura”
SONGWRITER “Paulo Pinto Jr/Andreas Kisser/Igor Cavalera/Max Cavalera”
ISRC USRH11701948
REM REPLAYGAIN_TRACK_GAIN -8.22 dB
REM REPLAYGAIN_TRACK_PEAK 0.988617
INDEX 01 00:00:00
FILE “08 – Clenched Fist (instrumental version 2).flac” WAVE
TRACK 08 AUDIO
TITLE “Clenched Fist (instrumental version 2)”
PERFORMER “Sepultura”
SONGWRITER “Andreas Kisser/Paulo Pinto Jr/Max Cavalera/Igor Cavalera”
ISRC USRH11701949
REM REPLAYGAIN_TRACK_GAIN -8.16 dB
REM REPLAYGAIN_TRACK_PEAK 0.988586
INDEX 01 00:00:00
FILE “09 – Refuse / Resist (Live in Minneapolis 1994).flac” WAVE
TRACK 09 AUDIO
TITLE “Refuse / Resist (Live in Minneapolis 1994)”
PERFORMER “Sepultura”
SONGWRITER “Igor Cavalera/Andreas Kisser/Max Cavalera/Paulo Jr./Paulo Pinto Jr”
ISRC USRH11701950
REM REPLAYGAIN_TRACK_GAIN -9.91 dB
REM REPLAYGAIN_TRACK_PEAK 0.988617
INDEX 01 00:00:00
FILE “10 – Slave New World (Live in Minneapolis 1994).flac” WAVE
TRACK 10 AUDIO
TITLE “Slave New World (Live in Minneapolis 1994)”
PERFORMER “Sepultura”
SONGWRITER “Andreas Kisser/Max Cavalera/Paulo Pinto Jr. (Paulo Jr.)/Igor Cavalera”
ISRC USRH11701951
REM REPLAYGAIN_TRACK_GAIN -9.32 dB
REM REPLAYGAIN_TRACK_PEAK 0.988617
INDEX 01 00:00:00
FILE “11 – Propaganda (Live in Minneapolis 1994).flac” WAVE
TRACK 11 AUDIO
TITLE “Propaganda (Live in Minneapolis 1994)”
PERFORMER “Sepultura”
SONGWRITER “Andreas Kisser/Igor Cavalera/Paulo Pinto Jr/Max Cavalera”
ISRC USRH11701952
REM REPLAYGAIN_TRACK_GAIN -9.28 dB
REM REPLAYGAIN_TRACK_PEAK 0.988617
INDEX 01 00:00:00
FILE “12 – Beneath The Remains / Escape to the Void (Live in Minneapolis 1994).flac” WAVE
TRACK 12 AUDIO
TITLE “Beneath The Remains / Escape to the Void (Live in Minneapolis 1994)”
PERFORMER “Sepultura”
SONGWRITER “Andreas Kisser/Paulo Pinto Jr/Igor Cavalera/Max Cavalera”
ISRC USRH11701953
REM REPLAYGAIN_TRACK_GAIN -9.37 dB
REM REPLAYGAIN_TRACK_PEAK 0.988647
INDEX 01 00:00:00
FILE “13 – Kaiowas (Live in Minneapolis 1994).flac” WAVE
TRACK 13 AUDIO
TITLE “Kaiowas (Live in Minneapolis 1994)”
PERFORMER “Sepultura”
SONGWRITER “Andreas Kisser/Igor Cavalera/Max Cavalera/Paulo Pinto Jr”
ISRC USRH11701954
REM REPLAYGAIN_TRACK_GAIN -9.44 dB
REM REPLAYGAIN_TRACK_PEAK 0.988617
INDEX 01 00:00:00
FILE “14 – Clenched Fist (Live in Minneapolis 1994).flac” WAVE
TRACK 14 AUDIO
TITLE “Clenched Fist (Live in Minneapolis 1994)”
PERFORMER “Sepultura”
SONGWRITER “Max Cavalera/Igor Cavalera/Andreas Kisser/Paulo Pinto Jr”
ISRC USRH11701955
REM REPLAYGAIN_TRACK_GAIN -10.48 dB
REM REPLAYGAIN_TRACK_PEAK 0.988617
INDEX 01 00:00:00
FILE “15 – Biotech Is Godzilla (Live in Minneapolis 1994).flac” WAVE
TRACK 15 AUDIO
TITLE “Biotech Is Godzilla (Live in Minneapolis 1994)”
PERFORMER “Sepultura”
SONGWRITER “Max Cavalera/Paulo Pinto Jr/Andreas Kisser/Igor Cavalera”
ISRC USRH11701956
REM REPLAYGAIN_TRACK_GAIN -9.88 dB
REM REPLAYGAIN_TRACK_PEAK 0.988617
INDEX 01 00:00:00
FILE “16 – Territory (Live in Minneapolis 1994).flac” WAVE
TRACK 16 AUDIO
TITLE “Territory (Live in Minneapolis 1994)”
PERFORMER “Sepultura”
SONGWRITER “Max Cavalera/Igor Cavalera/Andreas Kisser/Paulo Pinto Jr. (Paulo Jr.)”
ISRC USRH11701957
REM REPLAYGAIN_TRACK_GAIN -10.16 dB
REM REPLAYGAIN_TRACK_PEAK 0.988617
INDEX 01 00:00:00
FILE “17 – Amen / Inner Self (Live in Minneapolis 1994).flac” WAVE
TRACK 17 AUDIO
TITLE “Amen / Inner Self (Live in Minneapolis 1994)”
PERFORMER “Sepultura”
SONGWRITER “Paulo Pinto Jr/Igor Cavalera”
ISRC USRH11701958
REM REPLAYGAIN_TRACK_GAIN -9.69 dB
REM REPLAYGAIN_TRACK_PEAK 0.988647
INDEX 01 00:00:00


Leave a Reply

Your email address will not be published. Required fields are marked *

This site uses Akismet to reduce spam. Learn how your comment data is processed.