Sepultura – Chaos A.D. (Japanese Edition)




[Total: 0    Average: 0/5]

Artist: Sepultura
Year: 1993
Genre: Metal
Notes: Discogs
Add. Notes: Japanese Edition
Cover incl.: Yes
Encoder: FLAC
Bitrate: ~900 kBit/s (44.1 kHz/16 Bit/s)
Log & Cue incl.: Yes
Size: 470 MB
Password: “slam” (without ” “)


All Downloads/Hosters are compatible

Download 1
KatFile.com
Turbobit.net
FileFactory.com
Rapidgator.net
Download 2
KatFile.com
Turbobit.net
FileFactory.com
Rapidgator.net

Tracklist:

1 - Refuse/Resist - 3:20
2 - Territory - 4:47
3 - Slave New World - 2:55
4 - Amen - 4:27
5 - Kaiowas - 3:44
6 - Propaganda - 3:33
7 - Biotech Is Godzilla - 1:53
8 - Nomad - 4:59
9 - We Who Are Not As Others - 
3:43
10 - Manifest - 4:50
11 - The Hunt - 3:59
12 - Clenched Fist - 4:58
13 - Policia - 4:47

EAC-Log, CUE-Sheed & NFO:

Click to open spoiler
Exact Audio Copy V0.99 prebeta 4 from 23. January 2008

EAC extraction logfile from 1. June 2010, 11:41

Sepultura / Chaos A.D. (FEMS-Roadrunner, APCY-8136, Japan)

Used drive : Optiarc DVD RW AD-7200A Adapter: 0 ID: 0

Read mode : Secure
Utilize accurate stream : Yes
Defeat audio cache : Yes
Make use of C2 pointers : No

Read offset correction : 48
Overread into Lead-In and Lead-Out : No
Fill up missing offset samples with silence : Yes
Delete leading and trailing silent blocks : No
Null samples used in CRC calculations : Yes
Used interface : Native Win32 interface for Win NT & 2000

Used output format : Internal WAV Routines
Sample format : 44.100 Hz; 16 Bit; Stereo

TOC of the extracted CD

Track | Start | Length | Start sector | End sector
———————————————————
1 | 0:00.37 | 3:19.73 | 37 | 15034
2 | 3:20.35 | 4:47.30 | 15035 | 36589
3 | 8:07.65 | 2:55.07 | 36590 | 49721
4 | 11:02.72 | 4:27.35 | 49722 | 69781
5 | 15:30.32 | 3:43.43 | 69782 | 86549
6 | 19:14.00 | 3:33.30 | 86550 | 102554
7 | 22:47.30 | 1:52.45 | 102555 | 110999
8 | 24:40.00 | 4:59.07 | 111000 | 133431
9 | 29:39.07 | 3:42.53 | 133432 | 150134
10 | 33:21.60 | 4:49.42 | 150135 | 171851
11 | 38:11.27 | 3:59.35 | 171852 | 189811
12 | 42:10.62 | 4:57.68 | 189812 | 212154
13 | 47:08.55 | 4:46.72 | 212155 | 233676

Range status and errors

Selected range

Filename C:\TEMP\Sepultura – Chaos A.D. (FEMS-Roadrunner, APCY-8136, Japan).wav

Peak level 100.0 %
Range quality 100.0 %
Test CRC 2F3348B7
Copy CRC 2F3348B7
Copy OK

No errors occurred

AccurateRip summary

Track 1 accurately ripped (confidence 1) [50EE43C0]
Track 2 accurately ripped (confidence 1) [E49D0D85]
Track 3 accurately ripped (confidence 1) [AAD927DC]
Track 4 accurately ripped (confidence 1) [5C729C3C]
Track 5 accurately ripped (confidence 1) [89D18C23]
Track 6 accurately ripped (confidence 1) [55D7361F]
Track 7 accurately ripped (confidence 1) [2FFD4A66]
Track 8 accurately ripped (confidence 1) [31A9724E]
Track 9 accurately ripped (confidence 1) [71432492]
Track 10 accurately ripped (confidence 1) [CFBBBC80]
Track 11 accurately ripped (confidence 1) [DCEC49A4]
Track 12 accurately ripped (confidence 1) [4370E61F]
Track 13 accurately ripped (confidence 1) [ADA6B862]

All tracks accurately ripped

End of status report

REM GENRE “Thrash Metal”
REM DATE 1993
REM DISCID A70C2B0D
REM COMMENT “ExactAudioCopy v0.99pb4”
PERFORMER “Sepultura”
TITLE “Chaos A.D. (FEMS-Roadrunner, APCY-8136, Japan)”
FILE “Sepultura – Chaos A.D. (FEMS-Roadrunner, APCY-8136, Japan).flac” WAVE
TRACK 01 AUDIO
TITLE “Refuse / Resist”
PERFORMER “Sepultura”
INDEX 00 00:00:00
INDEX 01 00:00:37
TRACK 02 AUDIO
TITLE “Territory”
PERFORMER “Sepultura”
INDEX 01 03:20:35
TRACK 03 AUDIO
TITLE “Slave New World”
PERFORMER “Sepultura”
INDEX 00 08:07:63
INDEX 01 08:07:65
TRACK 04 AUDIO
TITLE “Amen”
PERFORMER “Sepultura”
INDEX 00 11:02:53
INDEX 01 11:02:72
TRACK 05 AUDIO
TITLE “Kaiowas”
PERFORMER “Sepultura”
INDEX 00 15:30:21
INDEX 01 15:30:32
TRACK 06 AUDIO
TITLE “Propaganda”
PERFORMER “Sepultura”
INDEX 01 19:14:00
TRACK 07 AUDIO
TITLE “Biotech Is Godzilla”
PERFORMER “Sepultura”
INDEX 00 22:46:46
INDEX 01 22:47:30
TRACK 08 AUDIO
TITLE “Nomad”
PERFORMER “Sepultura”
INDEX 01 24:40:00
TRACK 09 AUDIO
TITLE “We Who Are Not As Others”
PERFORMER “Sepultura”
INDEX 00 29:38:48
INDEX 01 29:39:07
TRACK 10 AUDIO
TITLE “Manifest”
PERFORMER “Sepultura”
INDEX 01 33:21:60
TRACK 11 AUDIO
TITLE “The Hunt”
PERFORMER “Sepultura”
INDEX 00 38:08:28
INDEX 01 38:11:27
TRACK 12 AUDIO
TITLE “Clenched Fist”
PERFORMER “Sepultura”
INDEX 01 42:10:62
TRACK 13 AUDIO
TITLE “Policia (Bonus Track)”
PERFORMER “Sepultura”
INDEX 01 47:08:55


Spread the Download

Leave a Reply

Your email address will not be published. Required fields are marked *

Enter the text from the image below
 

This site uses Akismet to reduce spam. Learn how your comment data is processed.