Sepultura – Chaos A.D. (Brazilian Edition)




No Cover available

Artist: Sepultura
Year: 1993
Genre: Metal
Notes: Discogs
Add. Notes: Brazilian Edition
Watch Songs on: YouTube
Cover incl.: Yes
Encoder: FLAC
Bitrate: ~900 kBit/s (44.1 kHz/16 Bit/s)
Log & Cue incl.: Yes/Yes
Size: 360,4 MB
Password: “slam” (without ” “)


All Downloads/Hosters are compatible

Download 1
KatFile.com
Turbobit.net
Rapidgator.net
FileFactory.com
Download 2
KatFile.com
Turbobit.net
Rapidgator.net
FileFactory.com

Tracklist:

1 Refuse / Resist 3:19
2 Territory 4:45
3 Slave New World 2:54
4 Amen 4:24
5 Kaiowas 3:32
6 Propaganda 3:31
7 Biotech Is Godzilla 1:52
8 Nomad 4:58
9 We Who Are Not As Others 3:43
10 Manifest 4:55
11 The Hunt 3:58
12 Clenched Fist 4:57

Special Bonus Track Only For Brazil
13 Polícia 1:48

EAC-Log, CUE-Sheed & NFO:

Click to open spoiler
Exact Audio Copy V1.0 beta 3 from 29. August 2011

EAC extraction logfile from 6. April 2012, 10:10

Sepultura / Chaos A.D.

Used drive : Optiarc DVD RW AD-7170A Adapter: 4 ID: 0

Read mode : Secure
Utilize accurate stream : Yes
Defeat audio cache : Yes
Make use of C2 pointers : No

Read offset correction : 48
Overread into Lead-In and Lead-Out : No
Fill up missing offset samples with silence : Yes
Delete leading and trailing silent blocks : No
Null samples used in CRC calculations : Yes
Used interface : Native Win32 interface for Win NT & 2000

Used output format : User Defined Encoder
Selected bitrate : 768 kBit/s
Quality : High
Add ID3 tag : Yes
Command line compressor : C:\Program Files\FLAC\FLAC frontend.exe
Additional command line options : -6 -V -T “ARTIST=%artist%” -T “TITLE=%title%” –

TOC of the extracted CD

Track | Start | Length | Start sector | End sector
———————————————————
1 | 0:00.00 | 3:19.72 | 0 | 14996
2 | 3:19.72 | 4:47.30 | 14997 | 36551
3 | 8:07.27 | 2:55.08 | 36552 | 49684
4 | 11:02.35 | 4:27.35 | 49685 | 69744
5 | 15:29.70 | 3:43.42 | 69745 | 86511
6 | 19:13.37 | 3:33.30 | 86512 | 102516
7 | 22:46.67 | 1:52.45 | 102517 | 110961
8 | 24:39.37 | 4:59.08 | 110962 | 133394
9 | 29:38.45 | 3:42.52 | 133395 | 150096
10 | 33:21.22 | 4:49.43 | 150097 | 171814
11 | 38:10.65 | 3:59.35 | 171815 | 189774
12 | 42:10.25 | 4:57.67 | 189775 | 212116
13 | 47:08.17 | 2:45.60 | 212117 | 224551
14 | 49:54.02 | 2:01.13 | 224552 | 233639

Range status and errors

Selected range

Filename C:\Music MP3\Sepultura – Chaos A.D..wav

Peak level 100.0 %
Extraction speed 4.5 X
Range quality 100.0 %
Copy CRC 974B1291
Copy OK

No errors occurred

AccurateRip summary

Track 1 cannot be verified as accurate (confidence 4) [E99E8E9C], AccurateRip returned [B469CF5C] (AR v2)
Track 2 cannot be verified as accurate (confidence 4) [436472AF], AccurateRip returned [60D6CB45] (AR v2)
Track 3 cannot be verified as accurate (confidence 4) [2DF91D0D], AccurateRip returned [C7E9C278] (AR v2)
Track 4 cannot be verified as accurate (confidence 4) [1A707EDB], AccurateRip returned [F663FCEC] (AR v2)
Track 5 cannot be verified as accurate (confidence 4) [E7B9F4E3], AccurateRip returned [6514388F] (AR v2)
Track 6 cannot be verified as accurate (confidence 4) [BBE898F2], AccurateRip returned [F99AEAE7] (AR v2)
Track 7 cannot be verified as accurate (confidence 4) [42BA5078], AccurateRip returned [17284FF7] (AR v2)
Track 8 cannot be verified as accurate (confidence 4) [22383110], AccurateRip returned [A84E98DD] (AR v2)
Track 9 cannot be verified as accurate (confidence 4) [36A8FC15], AccurateRip returned [6BF40C44] (AR v2)
Track 10 cannot be verified as accurate (confidence 4) [85103A37], AccurateRip returned [46551846] (AR v2)
Track 11 cannot be verified as accurate (confidence 4) [CD6B6211], AccurateRip returned [20A1D816] (AR v2)
Track 12 cannot be verified as accurate (confidence 4) [82D90F53], AccurateRip returned [F4B2FDA0] (AR v2)
Track 13 cannot be verified as accurate (confidence 4) [8F790B23], AccurateRip returned [37A67A6F] (AR v2)
Track 14 cannot be verified as accurate (confidence 3) [F3377546], AccurateRip returned [355A85CF] (AR v2)

No tracks could be verified as accurate
You may have a different pressing from the one(s) in the database

End of status report

—- CUETools DB Plugin V2.1.3

[CTDB TOCID: vkGE1opdlq2YdQAsMeL5oahjn.o-] found, Submit result: vkGE1opdlq2YdQAsMeL5oahjn.o- has been confirmed
[54bfac4b] (1/1) Accurately ripped

==== Log checksum 2983B0BA40433962D9939446A43F127421A456F951F7516A0F78346FB0259EF5 ====

REM GENRE Metal
REM DATE 1993
REM DISCID BA0C2B0E
REM COMMENT “ExactAudioCopy v1.0b3”
PERFORMER “Sepultura”
TITLE “Chaos A.D [Roadrunner, RR 9000-2, Brazil]”
FILE “Sepultura – Chaos A.D..flac” WAVE
TRACK 01 AUDIO
TITLE “Refuse/Resist”
PERFORMER “Sepultura”
INDEX 01 00:00:00
TRACK 02 AUDIO
TITLE “Territory”
PERFORMER “Sepultura”
INDEX 01 03:19:72
TRACK 03 AUDIO
TITLE “Slave New World”
PERFORMER “Sepultura”
INDEX 01 08:07:27
TRACK 04 AUDIO
TITLE “Amen”
PERFORMER “Sepultura”
INDEX 00 11:02:22
INDEX 01 11:02:35
TRACK 05 AUDIO
TITLE “Kaiowas”
PERFORMER “Sepultura”
INDEX 00 15:29:57
INDEX 01 15:29:70
TRACK 06 AUDIO
TITLE “Propaganda”
PERFORMER “Sepultura”
INDEX 01 19:13:37
TRACK 07 AUDIO
TITLE “Biotech Is Godzilla”
PERFORMER “Sepultura”
INDEX 00 22:46:13
INDEX 01 22:46:67
TRACK 08 AUDIO
TITLE “Nomad”
PERFORMER “Sepultura”
INDEX 01 24:39:37
TRACK 09 AUDIO
TITLE “We Who Are Not As Others”
PERFORMER “Sepultura”
INDEX 00 29:38:15
INDEX 01 29:38:45
TRACK 10 AUDIO
TITLE “Manifest”
PERFORMER “Sepultura”
INDEX 01 33:21:22
TRACK 11 AUDIO
TITLE “The Hunt”
PERFORMER “Sepultura”
INDEX 00 38:07:66
INDEX 01 38:10:65
TRACK 12 AUDIO
TITLE “Clenched Fist”
PERFORMER “Sepultura”
INDEX 01 42:10:25
TRACK 13 AUDIO
TITLE “Policia”
PERFORMER “Sepultura”
INDEX 01 47:08:17
TRACK 14 AUDIO
TITLE “Screams and Laugthers”
PERFORMER “Sepultura”
INDEX 01 49:54:02


0

Publication author

offline 13 hours

Chaos

3
Comments: 4Publics: 3418Registration: 02-02-2019
Spread the Download

Leave a Reply

Your email address will not be published. Required fields are marked *

Enter the text from the image below
 

This site uses Akismet to reduce spam. Learn how your comment data is processed.