Sepultura – Blood-Rooted (Japanese Edition)




No Cover available


Artist: Sepultura
Year: 1997
Genre: Metal
Notes: Discogs
Add. Notes: Japanese Edition
Watch Songs on: YouTube
Cover incl.: Yes
Encoder: FLAC
Bitrate: ~1000 kBit/s (44.1 kHz/16 Bit/s)
Log & Cue incl.: Yes/Yes
Size: 532,2 MB
Password: “slam” (without ” “)


All Downloads/Hosters are compatible

Download 1
KatFile.com
Turbobit.net
Rapidgator.net
FileFactory.com
Download 2
KatFile.com
Turbobit.net
Rapidgator.net
FileFactory.com

Tracklist:

1 Procreation (Of The Wicked) 3:39
2 Inhuman Nature 3:11
3 Polícia 1:47
4 War 6:40
5 Crucificados Pelo Sistema 1:04
6 Symptom Of The Universe 4:15
7 Mine 6:25
8 Lookaway (Master Vibe Mix) 5:36
9 Dusted (Demo Version) 4:27
10 Roots Bloody Roots (Demo Version) 3:32
11 Drug Me 1:55
12 Refuse / Resist (Live) 3:50
13 Slave New World (Live) 3:07
14 Propaganda (Live) 3:26
15 Beneath The Remains / Escape To The Void (Live) 3:49
16 Kaiowas (Live) 2:19
17 Clenched Fist (Live) 3:38
18 Biotech Is Godzilla (Live) 2:13

EAC-Log, CUE-Sheed & NFO:

Click to open spoiler
Exact Audio Copy V1.0 beta 1 from 15. November 2010

EAC extraction logfile from 27. May 2011, 19:21

Sepultura / Blood-Rooted (Roadrunner, Japan, RRCY-1060)

Used drive : PLEXTOR DVDR PX-880SA Adapter: 1 ID: 1

Read mode : Secure
Utilize accurate stream : Yes
Defeat audio cache : Yes
Make use of C2 pointers : No

Read offset correction : 6
Overread into Lead-In and Lead-Out : No
Fill up missing offset samples with silence : Yes
Delete leading and trailing silent blocks : No
Null samples used in CRC calculations : Yes
Used interface : Native Win32 interface for Win NT & 2000

Used output format : User Defined Encoder
Selected bitrate : 1024 kBit/s
Quality : High
Add ID3 tag : No
Command line compressor : C:\FLAC\flac.exe
Additional command line options : -8 -V %s -o %d

TOC of the extracted CD

Track | Start | Length | Start sector | End sector
———————————————————
1 | 0:00.10 | 3:39.22 | 10 | 16456
2 | 3:39.32 | 3:11.18 | 16457 | 30799
3 | 6:50.50 | 1:47.25 | 30800 | 38849
4 | 8:38.00 | 6:40.00 | 38850 | 68849
5 | 15:18.00 | 1:04.00 | 68850 | 73649
6 | 16:22.00 | 4:15.32 | 73650 | 92806
7 | 20:37.32 | 6:25.10 | 92807 | 121691
8 | 27:02.42 | 5:35.45 | 121692 | 146861
9 | 32:38.12 | 4:27.08 | 146862 | 166894
10 | 37:05.20 | 3:32.22 | 166895 | 182816
11 | 40:37.42 | 1:55.18 | 182817 | 191459
12 | 42:32.60 | 3:50.10 | 191460 | 208719
13 | 46:22.70 | 3:06.52 | 208720 | 222721
14 | 49:29.47 | 3:25.73 | 222722 | 238169
15 | 52:55.45 | 3:48.57 | 238170 | 255326
16 | 56:44.27 | 2:18.60 | 255327 | 265736
17 | 59:03.12 | 3:38.15 | 265737 | 282101
18 | 62:41.27 | 2:13.03 | 282102 | 292079

Range status and errors

Selected range

Filename C:\Mysterons [Skull_of_Sheeps]\Sepultura [1997] Blood-Rooted (Japan, Roadrunner, RRCY-1060)\Sepultura – Blood-Rooted (Roadrunner, Japan, RRCY-1060).wav

Peak level 100.0 %
Extraction speed 0.0 X
Range quality 100.0 %
Test CRC B464E626
Copy CRC B464E626
Copy OK

No errors occurred

AccurateRip summary

Track 1 not present in database
Track 2 not present in database
Track 3 not present in database
Track 4 not present in database
Track 5 not present in database
Track 6 not present in database
Track 7 not present in database
Track 8 not present in database
Track 9 not present in database
Track 10 not present in database
Track 11 not present in database
Track 12 not present in database
Track 13 not present in database
Track 14 not present in database
Track 15 not present in database
Track 16 not present in database
Track 17 not present in database
Track 18 not present in database

None of the tracks are present in the AccurateRip database

End of status report

REM GENRE “Thrash Metal”
REM DATE 1997
REM DISCID FB0F3612
REM COMMENT “ExactAudioCopy v1.0b1”
PERFORMER “Sepultura”
TITLE “Blood-Rooted (Roadrunner, Japan, RRCY-1060)”
FILE “Sepultura – Blood-Rooted (Roadrunner, Japan, RRCY-1060).flac” WAVE
TRACK 01 AUDIO
TITLE “Procreation Of The Wicked (Celtic Frost Cover)”
PERFORMER “Sepultura”
INDEX 00 00:00:00
INDEX 01 00:00:10
TRACK 02 AUDIO
TITLE “Inhuman Nature (Final Conflict Cover)”
PERFORMER “Sepultura”
INDEX 00 03:39:05
INDEX 01 03:39:32
TRACK 03 AUDIO
TITLE “Policia (Titas Cover)”
PERFORMER “Sepultura”
INDEX 01 06:50:50
TRACK 04 AUDIO
TITLE “War (Bob Marley Cover)”
PERFORMER “Sepultura”
INDEX 01 08:38:00
TRACK 05 AUDIO
TITLE “Crucificados Pelo Sistema (Ratos de Porao Cover)”
PERFORMER “Sepultura”
INDEX 00 15:17:32
INDEX 01 15:18:00
TRACK 06 AUDIO
TITLE “Symptom Of The Universe (Black Sabbath Cover)”
PERFORMER “Sepultura”
INDEX 00 16:21:50
INDEX 01 16:22:00
TRACK 07 AUDIO
TITLE “Mine”
PERFORMER “Sepultura”
INDEX 00 20:37:02
INDEX 01 20:37:32
TRACK 08 AUDIO
TITLE “Lookaway (Master Vibe Mix)”
PERFORMER “Sepultura”
INDEX 00 27:01:55
INDEX 01 27:02:42
TRACK 09 AUDIO
TITLE “Dusted (Demo Version)”
PERFORMER “Sepultura”
INDEX 01 32:38:12
TRACK 10 AUDIO
TITLE “Roots Bloody Roots (Demo Version)”
PERFORMER “Sepultura”
INDEX 00 37:04:55
INDEX 01 37:05:20
TRACK 11 AUDIO
TITLE “Drug Me (Dead Kennedys Cover)”
PERFORMER “Sepultura”
INDEX 00 40:36:40
INDEX 01 40:37:42
TRACK 12 AUDIO
TITLE “Refuse, Resist (Live)”
PERFORMER “Sepultura”
INDEX 00 42:31:25
INDEX 01 42:32:60
TRACK 13 AUDIO
TITLE “Slave New World (Live)”
PERFORMER “Sepultura”
INDEX 01 46:22:70
TRACK 14 AUDIO
TITLE “Propaganda (Live)”
PERFORMER “Sepultura”
INDEX 01 49:29:47
TRACK 15 AUDIO
TITLE “Beneath The Remains/Escape To The Void (Live)”
PERFORMER “Sepultura”
INDEX 01 52:55:45
TRACK 16 AUDIO
TITLE “Kaiowas (Live)”
PERFORMER “Sepultura”
INDEX 01 56:44:27
TRACK 17 AUDIO
TITLE “Clenched Fist (Live)”
PERFORMER “Sepultura”
INDEX 01 59:03:12
TRACK 18 AUDIO
TITLE “Biotech Is Godzilla (Live)”
PERFORMER “Sepultura”
INDEX 01 62:41:27


Leave a Reply

Your email address will not be published. Required fields are marked *

Enter the text from the image below
 

This site uses Akismet to reduce spam. Learn how your comment data is processed.