Sepultura – Bestial Devastation




Artist: Sepultura
Year: 1990
Genre: Metal
Notes: Discogs
Add. Notes:
Cover incl.: Yes
Encoder: FLAC
Bitrate: ~900 kBit/s (44.1 kHz/16 Bit/s)
Log & Cue incl.: Yes/Yes
Size: 139 MB
Password: “slam” (without ” “)


All Downloads/Hosters are compatible

Download 1
KatFile.com
Turbobit.net
FileFactory.com
Rapidgator.net
Download 2
KatFile.com
Turbobit.net
FileFactory.com
Rapidgator.net

Tracklist:

1 The Curse 
2 Bestial Devastation 
3 Antichrist 
4 Necromancer 
5 Warriors Of Death 
6 Troops Of Doom

EAC-Log, CUE-Sheed & NFO:

Click to open spoiler
Exact Audio Copy V1.0 beta 3 from 29. August 2011

EAC extraction logfile from 30. May 2014, 16:39

Sepultura / Bestial Devastation [Cogumelo, COG-004-CD, Brazil]

Used drive : PIONEER DVD-RW DVR-112D Adapter: 1 ID: 0

Read mode : Secure
Utilize accurate stream : Yes
Defeat audio cache : Yes
Make use of C2 pointers : No

Read offset correction : 48
Overread into Lead-In and Lead-Out : No
Fill up missing offset samples with silence : Yes
Delete leading and trailing silent blocks : No
Null samples used in CRC calculations : Yes
Used interface : Installed external ASPI interface

Used output format : User Defined Encoder
Selected bitrate : 1024 kBit/s
Quality : High
Add ID3 tag : No
Command line compressor : C:\Program Files\Exact Audio Copy\FLAC\FLAC.EXE
Additional command line options : -V -8 -T “Date=%year%” -T “Genre=%genre%” %source%

TOC of the extracted CD

Track | Start | Length | Start sector | End sector
———————————————————
1 | 0:00.00 | 0:41.08 | 0 | 3082
2 | 0:41.08 | 3:07.32 | 3083 | 17139
3 | 3:48.40 | 3:49.55 | 17140 | 34369
4 | 7:38.20 | 3:52.28 | 34370 | 51797
5 | 11:30.48 | 4:08.37 | 51798 | 70434
6 | 15:39.10 | 3:19.30 | 70435 | 85389

Range status and errors

Selected range

Filename C:\CDRip by Deminbek\Sepultura – Bestial Devastation [Cogumelo, COG-004-CD, Brazil].wav

Peak level 100.0 %
Extraction speed 5.6 X
Range quality 100.0 %
Test CRC 3E323C0D
Copy CRC 3E323C0D
Copy OK

No errors occurred

AccurateRip summary

Track 1 accurately ripped (confidence 3) [1CE1CD56] (AR v2)
Track 2 accurately ripped (confidence 3) [B0443E6B] (AR v2)
Track 3 accurately ripped (confidence 3) [3E0BB377] (AR v2)
Track 4 accurately ripped (confidence 3) [E8706DEB] (AR v2)
Track 5 accurately ripped (confidence 3) [B9503151] (AR v2)
Track 6 accurately ripped (confidence 3) [FC2A093D] (AR v2)

All tracks accurately ripped

End of status report

—- CUETools DB Plugin V2.1.4

[CTDB TOCID: huD850_hIkZKpxSYVTy2aLHm6mI-] disk not present in database
Submit result: huD850_hIkZKpxSYVTy2aLHm6mI- has been uploaded

==== Log checksum B41F27C09FFC118F30DAA563D7132C70DF7B8600228AD1EC1D024309C0656726 ====

REM GENRE “Thrash Metal”
REM DATE 1985
REM DISCID 37047206
REM COMMENT “ExactAudioCopy v1.0b3”
CATALOG 0000000000000
PERFORMER “Sepultura”
TITLE “Bestial Devastation [Cogumelo, COG-004-CD, Brazil]”
FILE “Sepultura – Bestial Devastation [Cogumelo, COG-004-CD, Brazil].flac” WAVE
TRACK 01 AUDIO
TITLE “The Curse”
PERFORMER “Sepultura”
INDEX 01 00:00:00
TRACK 02 AUDIO
TITLE “Bestial Devastation”
PERFORMER “Sepultura”
INDEX 01 00:41:08
TRACK 03 AUDIO
TITLE “Antichrist”
PERFORMER “Sepultura”
INDEX 01 03:48:40
TRACK 04 AUDIO
TITLE “Necromancer”
PERFORMER “Sepultura”
INDEX 00 07:35:23
INDEX 01 07:38:20
TRACK 05 AUDIO
TITLE “Warriors Of Death”
PERFORMER “Sepultura”
INDEX 01 11:30:48
TRACK 06 AUDIO
TITLE “Troops Of Doom [New Remixed Version]”
PERFORMER “Sepultura”
INDEX 00 15:37:43
INDEX 01 15:39:10


Leave a Reply

Your email address will not be published. Required fields are marked *

Enter the text from the image below
 

This site uses Akismet to reduce spam. Learn how your comment data is processed.