Sepultura – Beneath The Remains (Remastered Japanese Edition)




Artist: Sepultura
Year: 1989/1991
Genre: Metal
Notes: Discogs
Add. Notes: Remastered Japanese Edition
Cover incl.: Yes
Encoder: FLAC
Bitrate: ~900 kBit/s (44.1 kHz/16 Bit/s)
Log & Cue incl.: Yes
Size: 356 MB
Password: “slam” (without ” “)


All Downloads/Hosters are compatible

Download 1
KatFile.com
Rapidgator.net
Turbobit.net
FileFactory.com
Download 2
KatFile.com
Rapidgator.net
Turbobit.net
FileFactory.com

Tracklist:

1 - Beneath The Remains - 5:13
2 - Inner Self - 5:09
3 - Stronger Than Hate - 5:51
4 - Mass Hypnosis - 4:25
5 - Sarcastic Existence - 4:45
6 - Slaves Of Pain - 4:03
7 - Lobotomy - 4:58
8 - Hungry - 4:29
9 - Primitive Future - 3:12
10 - Special Message For Japanese 
Fans - 1:12

EAC-Log, CUE-Sheed & NFO:

Click to open spoiler
Exact Audio Copy V1.0 beta 3 from 29. August 2011

EAC extraction logfile from 30. May 2014, 17:03

Sepultura / Beneath The Remains [FEMS, APCY-8053, Japan]

Used drive : PIONEER DVD-RW DVR-112D Adapter: 1 ID: 0

Read mode : Secure
Utilize accurate stream : Yes
Defeat audio cache : Yes
Make use of C2 pointers : No

Read offset correction : 48
Overread into Lead-In and Lead-Out : No
Fill up missing offset samples with silence : Yes
Delete leading and trailing silent blocks : No
Null samples used in CRC calculations : Yes
Used interface : Installed external ASPI interface

Used output format : User Defined Encoder
Selected bitrate : 1024 kBit/s
Quality : High
Add ID3 tag : No
Command line compressor : C:\Program Files\Exact Audio Copy\FLAC\FLAC.EXE
Additional command line options : -V -8 -T “Date=%year%” -T “Genre=%genre%” %source%

TOC of the extracted CD

Track | Start | Length | Start sector | End sector
———————————————————
1 | 0:00.37 | 5:13.55 | 37 | 23566
2 | 5:14.17 | 5:09.73 | 23567 | 46814
3 | 10:24.15 | 5:51.70 | 46815 | 73209
4 | 16:16.10 | 4:25.57 | 73210 | 93141
5 | 20:41.67 | 4:45.08 | 93142 | 114524
6 | 25:27.00 | 4:03.37 | 114525 | 132786
7 | 29:30.37 | 4:58.25 | 132787 | 155161
8 | 34:28.62 | 4:29.58 | 155162 | 175394
9 | 38:58.45 | 3:12.02 | 175395 | 189796
10 | 42:10.47 | 1:12.15 | 189797 | 195211

Range status and errors

Selected range

Filename C:\CDRip by Deminbek\Sepultura – Beneath The Remains [FEMS, APCY-8053, Japan].wav

Peak level 97.3 %
Extraction speed 6.7 X
Range quality 100.0 %
Test CRC E4D4D951
Copy CRC E4D4D951
Copy OK

No errors occurred

AccurateRip summary

Track 1 accurately ripped (confidence 3) [35B3EF9E] (AR v1)
Track 2 accurately ripped (confidence 3) [9C741E97] (AR v1)
Track 3 accurately ripped (confidence 3) [A0F81336] (AR v1)
Track 4 accurately ripped (confidence 3) [AE27C025] (AR v1)
Track 5 accurately ripped (confidence 3) [13BE19E9] (AR v1)
Track 6 accurately ripped (confidence 3) [1889AE11] (AR v1)
Track 7 accurately ripped (confidence 3) [904C5582] (AR v1)
Track 8 accurately ripped (confidence 3) [739467AA] (AR v1)
Track 9 accurately ripped (confidence 3) [ADB279C5] (AR v1)
Track 10 accurately ripped (confidence 3) [69A380E0] (AR v1)

All tracks accurately ripped

End of status report

—- CUETools DB Plugin V2.1.4

[CTDB TOCID: EtrtiM2aX0iYg7i8VwitgATngx0-] found
Submit result: EtrtiM2aX0iYg7i8VwitgATngx0- has been confirmed
Track | CTDB Status
1 | (1/1) Accurately ripped
2 | (1/1) Accurately ripped
3 | (1/1) Accurately ripped
4 | (1/1) Accurately ripped
5 | (1/1) Accurately ripped
6 | (1/1) Accurately ripped
7 | (1/1) Accurately ripped
8 | (1/1) Accurately ripped
9 | (1/1) Accurately ripped
10 | (1/1) Accurately ripped

==== Log checksum 04C1A9D9458C252FBA5B51834AA6A3D3C0FFB9DBD3B7B6D695E7C07DF0343F8A ====

REM GENRE “Thrash Metal”
REM DATE 1989
REM DISCID 7C0A2A0A
REM COMMENT “ExactAudioCopy v1.0b3”
CATALOG 0000000000000
PERFORMER “Sepultura”
TITLE “Beneath The Remains [FEMS, APCY-8053, Japan]”
FILE “Sepultura – Beneath The Remains [FEMS, APCY-8053, Japan].flac” WAVE
TRACK 01 AUDIO
TITLE “Beneath The Remains”
PERFORMER “Sepultura”
INDEX 00 00:00:00
INDEX 01 00:00:37
TRACK 02 AUDIO
TITLE “Inner Self”
PERFORMER “Sepultura”
INDEX 01 05:14:17
TRACK 03 AUDIO
TITLE “Stronger Than Hate”
PERFORMER “Sepultura”
INDEX 00 10:23:16
INDEX 01 10:24:15
TRACK 04 AUDIO
TITLE “Mass Hypnosis”
PERFORMER “Sepultura”
INDEX 00 16:15:66
INDEX 01 16:16:10
TRACK 05 AUDIO
TITLE “Sarcastic Existence”
PERFORMER “Sepultura”
INDEX 00 20:40:18
INDEX 01 20:41:67
TRACK 06 AUDIO
TITLE “Slaves Of Pain”
PERFORMER “Sepultura”
INDEX 01 25:27:00
TRACK 07 AUDIO
TITLE “Lobotomy”
PERFORMER “Sepultura”
INDEX 00 29:30:18
INDEX 01 29:30:37
TRACK 08 AUDIO
TITLE “Hungry”
PERFORMER “Sepultura”
INDEX 00 34:27:71
INDEX 01 34:28:62
TRACK 09 AUDIO
TITLE “Primitive Future”
PERFORMER “Sepultura”
INDEX 01 38:58:45
TRACK 10 AUDIO
TITLE “Special Message For Japanese Fans”
PERFORMER “Sepultura”
INDEX 00 42:07:73
INDEX 01 42:10:47


Leave a Reply

Your email address will not be published. Required fields are marked *

This site uses Akismet to reduce spam. Learn how your comment data is processed.