Sepultura – Beneath The Remains (Remastered Deluxe Edition)




No Cover available

Artist: Sepultura
Year: 1997
Genre: Metal
Notes: Discogs
Add. Notes: Remastered Deluxe Edition
Watch Songs on: YouTube
Cover incl.: Yes
Encoder: FLAC
Bitrate: ~1100 kBit/s (44.1 kHz/16 Bit/s)
Log & Cue incl.: Yes/Yes
Size: 471,5 MB
Password: “slam” (without ” “)


All Downloads/Hosters are compatible

Download 1
KatFile.com
Turbobit.net
FileFactory.com
Rapidgator.net
NitroFlare.com
Download 2
KatFile.com
Turbobit.net
FileFactory.com
Rapidgator.net
NitroFlare.com

Tracklist:

1 Beneath The Remains 5:14
2 Inner Self 5:10
3 Stronger Than Hate 5:53
4 Mass Hypnosis 4:25
5 Sarcastic Existence 4:46
6 Slaves Of Pain 4:04
7 Lobotomy 4:59
8 Hungry 4:30
9 Primitive Future 3:10

Bonus Tracks
10 A Hora E A Vez Do Cabelo Nascer 2:22
11 Inner Self (Drum Tracks) 5:10
12 Mass Hypnosis (Drum Tracks) 4:22

EAC-Log, CUE-Sheed & NFO:

Click to open spoiler
Exact Audio Copy V1.0 beta 3 from 29. August 2011

EAC extraction logfile from 30. May 2014, 18:44

Sepultura / Beneath The Remains [Roadrunner, 1686-187662, USA]

Used drive : PIONEER DVD-RW DVR-112D Adapter: 1 ID: 0

Read mode : Secure
Utilize accurate stream : Yes
Defeat audio cache : Yes
Make use of C2 pointers : No

Read offset correction : 48
Overread into Lead-In and Lead-Out : No
Fill up missing offset samples with silence : Yes
Delete leading and trailing silent blocks : No
Null samples used in CRC calculations : Yes
Used interface : Installed external ASPI interface

Used output format : User Defined Encoder
Selected bitrate : 1024 kBit/s
Quality : High
Add ID3 tag : No
Command line compressor : C:\Program Files\Exact Audio Copy\FLAC\FLAC.EXE
Additional command line options : -V -8 -T “Date=%year%” -T “Genre=%genre%” %source%

TOC of the extracted CD

Track | Start | Length | Start sector | End sector
———————————————————
1 | 0:00.00 | 5:14.22 | 0 | 23571
2 | 5:14.22 | 5:10.55 | 23572 | 46876
3 | 10:25.02 | 5:53.03 | 46877 | 73354
4 | 16:18.05 | 4:25.65 | 73355 | 93294
5 | 20:43.70 | 4:46.35 | 93295 | 114779
6 | 25:30.30 | 4:04.02 | 114780 | 133081
7 | 29:34.32 | 4:59.13 | 133082 | 155519
8 | 34:33.45 | 4:30.42 | 155520 | 175811
9 | 39:04.12 | 3:10.40 | 175812 | 190101
10 | 42:14.52 | 2:22.55 | 190102 | 200806
11 | 44:37.32 | 5:10.48 | 200807 | 224104
12 | 49:48.05 | 4:22.12 | 224105 | 243766

Range status and errors

Selected range

Filename C:\CDRip by Deminbek\Sepultura – Beneath The Remains [Roadrunner, 1686-187662, USA].wav

Peak level 100.0 %
Extraction speed 7.3 X
Range quality 100.0 %
Test CRC 7DD5EA2A
Copy CRC 7DD5EA2A
Copy OK

No errors occurred

AccurateRip summary

Track 1 accurately ripped (confidence 6) [9E6C8346] (AR v2)
Track 2 accurately ripped (confidence 6) [1FDD0296] (AR v2)
Track 3 accurately ripped (confidence 6) [27C07BBC] (AR v2)
Track 4 accurately ripped (confidence 6) [18F27943] (AR v2)
Track 5 accurately ripped (confidence 6) [85BD78C7] (AR v2)
Track 6 accurately ripped (confidence 6) [2B11ADA0] (AR v2)
Track 7 accurately ripped (confidence 6) [0009EEFD] (AR v2)
Track 8 accurately ripped (confidence 6) [2F6ECAE0] (AR v2)
Track 9 accurately ripped (confidence 6) [00E6E892] (AR v2)
Track 10 accurately ripped (confidence 6) [43AE39A4] (AR v2)
Track 11 accurately ripped (confidence 6) [6570A112] (AR v2)
Track 12 accurately ripped (confidence 6) [5F3D77F4] (AR v2)

All tracks accurately ripped

End of status report

—- CUETools DB Plugin V2.1.4

[CTDB TOCID: XOBHgrMTAC9w.xGvtPzZ_u6uYgo-] found
Submit result: XOBHgrMTAC9w.xGvtPzZ_u6uYgo- has been confirmed
Track | CTDB Status
1 | (59/60) Accurately ripped
2 | (60/60) Accurately ripped
3 | (60/60) Accurately ripped
4 | (60/60) Accurately ripped
5 | (60/60) Accurately ripped
6 | (60/60) Accurately ripped
7 | (60/60) Accurately ripped
8 | (58/60) Accurately ripped
9 | (58/60) Accurately ripped
10 | (58/60) Accurately ripped
11 | (60/60) Accurately ripped
12 | (56/60) Accurately ripped

==== Log checksum A6D135CA7C5B098B8ED9A48474ADBCF5B99F1CDBEA24D6A55F38A22895794C34 ====

REM GENRE “Thrash Metal”
REM DATE 1997
REM DISCID B10CB20C
REM COMMENT “ExactAudioCopy v1.0b3”
CATALOG 0016861876623
PERFORMER “Sepultura”
TITLE “Beneath The Remains [Roadrunner, 1686-187662, USA]”
FILE “Sepultura – Beneath The Remains [Roadrunner, 1686-187662, USA].flac” WAVE
TRACK 01 AUDIO
TITLE “Beneath The Remains”
PERFORMER “Sepultura”
ISRC NLA329780625
INDEX 01 00:00:00
TRACK 02 AUDIO
TITLE “Inner Self”
PERFORMER “Sepultura”
ISRC NLA329780626
INDEX 01 05:14:22
TRACK 03 AUDIO
TITLE “Stronger Than Hate”
PERFORMER “Sepultura”
ISRC NLA329780627
INDEX 00 10:22:37
INDEX 01 10:25:02
TRACK 04 AUDIO
TITLE “Mass Hypnosis”
PERFORMER “Sepultura”
ISRC NLA329780628
INDEX 01 16:18:05
TRACK 05 AUDIO
TITLE “Sarcastic Existence”
PERFORMER “Sepultura”
ISRC NLA329780629
INDEX 00 20:41:30
INDEX 01 20:43:70
TRACK 06 AUDIO
TITLE “Slaves Of Pain”
PERFORMER “Sepultura”
ISRC NLA329780630
INDEX 01 25:30:30
TRACK 07 AUDIO
TITLE “Lobotomy”
PERFORMER “Sepultura”
ISRC NLA329780631
INDEX 00 29:32:62
INDEX 01 29:34:32
TRACK 08 AUDIO
TITLE “Hungry”
PERFORMER “Sepultura”
ISRC NLA329780632
INDEX 00 34:31:34
INDEX 01 34:33:45
TRACK 09 AUDIO
TITLE “Primitive Future”
PERFORMER “Sepultura”
ISRC NLA329780633
INDEX 00 39:02:72
INDEX 01 39:04:12
TRACK 10 AUDIO
TITLE “A Hora E A Vez Do Cabelo Nascer”
PERFORMER “Sepultura”
ISRC NLA329780634
INDEX 00 42:12:65
INDEX 01 42:14:52
TRACK 11 AUDIO
TITLE “Inner Self [drum tracks]”
PERFORMER “Sepultura”
ISRC NLA329780635
INDEX 00 44:35:62
INDEX 01 44:37:32
TRACK 12 AUDIO
TITLE “Mass Hypnosis [drum tracks]”
PERFORMER “Sepultura”
ISRC NLA329780636
INDEX 01 49:48:05


Leave a Reply

Your email address will not be published. Required fields are marked *

This site uses Akismet to reduce spam. Learn how your comment data is processed.