Sepultura – Beneath The Remains (Japanese Edition)




Artist: Sepultura
Year: 1989
Genre: Metal
Notes: Discogs
Add. Notes: Japanese Edition
Cover incl.: Yes
Encoder: FLAC
Bitrate: ~1000 kBit/s (44.1 kHz/16 Bit/s)
Log & Cue incl.: Yes
Size: 308 MB
Password: “slam” (without ” “)


All Downloads/Hosters are compatible

Download 1
KatFile.com
Turbobit.net
FileFactory.com
Rapidgator.net
Download 2
KatFile.com
Turbobit.net
FileFactory.com
Rapidgator.net

Tracklist:

1 - Beneath The Remains - 5:14
2 - Inner Self - 5:11
3 - Stronger Than Hate - 5:53
4 - Mass Hypnosis - 4:26
5 - Sarcastic Existence - 4:47
6 - Slaves Of Pain - 4:04
7 - Lobotomy - 4:59
8 - Hungry - 4:31
9 - Primitive Future - 3:11

EAC-Log, CUE-Sheed & NFO:

Click to open spoiler
Exact Audio Copy V0.99 prebeta 5 from 4. May 2009

Отчёт EAC об извлечении, выполненном 14. июля 2011, 22:36

Sepultura / Beneath The Remains [APCY-8006]

Дисковод: Optiarc DVD RW AD-7200A Adapter: 1 ID: 0

Режим чтения : Достоверность
Использование точного потока : Да
Отключение кэша аудио : Да
Использование указателей C2 : Нет

Коррекция смещения при чтении : 48
Способность читать области Lead-in и Lead-out : Нет
Заполнение пропущенных сэмплов тишиной : Да
Удаление блоков с тишиной в начале и конце : Нет
При вычислениях CRC использовались нулевые сэмплы : Да
Интерфейс : Встроенный Win32-интерфейс для Win NT/2000

Выходной формат : Пользовательский кодировщик
Выбранный битрейт : 128 kBit/s
Качество : Высокий
Добавление ID3-тэга : Нет
Утилита сжатия : C:\Program Files\Exact Audio Copy\Flac\flac.exe
Дополнительные параметры : -8 -V -T “artist=%a” -T “title=%t” -T “album=%g” -T “date=%y” -T “tracknumber=%n” -T “genre=%m” -T “comment=EAC

TOC извлечённого CD

Трек | Старт | Длительность | Начальный сектор | Конечный сектор
———————————————————————
1 | 0:00.37 | 5:14.18 | 37 | 23604
2 | 5:14.55 | 5:10.55 | 23605 | 46909
3 | 10:25.35 | 5:53.32 | 46910 | 73416
4 | 16:18.67 | 4:25.53 | 73417 | 93344
5 | 20:44.45 | 4:46.45 | 93345 | 114839
6 | 25:31.15 | 4:03.70 | 114840 | 133134
7 | 29:35.10 | 4:59.17 | 133135 | 155576
8 | 34:34.27 | 4:30.55 | 155577 | 175881
9 | 39:05.07 | 3:11.25 | 175882 | 190231

Характеристики диапазона извлечения и сообщения об ошибках

Выбранный диапазон

Имя файла Y:\Музыка\Sepultura\1989 Beneath The Remains\Sepultura – Beneath The Remains [APCY-8006].wav

Пиковый уровень 96.9 %
Качество диапазона 100.0 %
CRC теста A00FEA6B
CRC копии A00FEA6B
Копирование… OK

Ошибок не произошло

AccurateRip: сводка

Трек 1 нет в базе данных
Трек 2 нет в базе данных
Трек 3 нет в базе данных
Трек 4 нет в базе данных
Трек 5 нет в базе данных
Трек 6 нет в базе данных
Трек 7 нет в базе данных
Трек 8 нет в базе данных
Трек 9 нет в базе данных

Ни одного трека нет в базе AccurateRip

Конец отчёта

REM GENRE “Thrash Metal”
REM DATE 1989
REM DISCID 7A09E809
REM COMMENT “ExactAudioCopy v0.99pb5”
PERFORMER “Sepultura”
TITLE “Beneath The Remains [APCY-8006]”
FILE “Sepultura – Beneath The Remains [APCY-8006].flac” WAVE
TRACK 01 AUDIO
TITLE “Beneath The Remains”
PERFORMER “Sepultura”
INDEX 00 00:00:00
INDEX 01 00:00:37
TRACK 02 AUDIO
TITLE “Inner Self”
PERFORMER “Sepultura”
INDEX 01 05:14:55
TRACK 03 AUDIO
TITLE “Stronger Than Hate”
PERFORMER “Sepultura”
INDEX 00 10:24:27
INDEX 01 10:25:35
TRACK 04 AUDIO
TITLE “Mass Hypnosis”
PERFORMER “Sepultura”
INDEX 01 16:18:67
TRACK 05 AUDIO
TITLE “Sarcastic Existence”
PERFORMER “Sepultura”
INDEX 00 20:43:50
INDEX 01 20:44:45
TRACK 06 AUDIO
TITLE “Slaves Of Pain”
PERFORMER “Sepultura”
INDEX 01 25:31:15
TRACK 07 AUDIO
TITLE “Lobotomy”
PERFORMER “Sepultura”
INDEX 00 29:34:40
INDEX 01 29:35:10
TRACK 08 AUDIO
TITLE “Hungry”
PERFORMER “Sepultura”
INDEX 00 34:34:02
INDEX 01 34:34:27
TRACK 09 AUDIO
TITLE “Primitive Future”
PERFORMER “Sepultura”
INDEX 01 39:05:07


Leave a Reply

Your email address will not be published. Required fields are marked *

Enter the text from the image below
 

This site uses Akismet to reduce spam. Learn how your comment data is processed.