Sepultura – Arise




No Cover available

Artist: Sepultura
Year: 1991
Genre: Rock
Notes: Discogs
Add. Notes:
Watch Songs on: YouTube
Cover incl.: Yes
Encoder: FLAC
Bitrate: ~1000 kBit/s (44.1 kHz/16 Bit/s)
Log & Cue incl.: Yes/Yes
Size: 363 MB
Password: “slam” (without ” “)


All Downloads/Hosters are compatible

Download 1
KatFile.com
Turbobit.net
Rapidgator.net
FileFactory.com
Download 2
KatFile.com
Turbobit.net
Rapidgator.net
FileFactory.com

Tracklist:

1 Arise 3:18
2 Dead Embryonic Cells 4:52
3 Desperate Cry 6:41
4 Murder 3:26
5 Subtraction 4:48
6 Altered State 6:33
7 Under Siege (Regnum Irae) 4:54
8 Meaningless Movements 4:40
9 Infected Voice 3:18

EAC-Log, CUE-Sheed & NFO:

Click to open spoiler
Exact Audio Copy V1.0 beta 3 from 29. August 2011

EAC extraction logfile from 31. May 2014, 10:17

Sepultura / Arise [RoadRacer, RO 9328-2, Holland]

Used drive : PIONEER DVD-RW DVR-112D Adapter: 1 ID: 0

Read mode : Secure
Utilize accurate stream : Yes
Defeat audio cache : Yes
Make use of C2 pointers : No

Read offset correction : 48
Overread into Lead-In and Lead-Out : No
Fill up missing offset samples with silence : Yes
Delete leading and trailing silent blocks : No
Null samples used in CRC calculations : Yes
Used interface : Installed external ASPI interface

Used output format : User Defined Encoder
Selected bitrate : 1024 kBit/s
Quality : High
Add ID3 tag : No
Command line compressor : C:\Program Files\Exact Audio Copy\FLAC\FLAC.EXE
Additional command line options : -V -8 -T “Date=%year%” -T “Genre=%genre%” %source%

TOC of the extracted CD

Track | Start | Length | Start sector | End sector
———————————————————
1 | 0:00.32 | 3:18.08 | 32 | 14889
2 | 3:18.40 | 4:52.22 | 14890 | 36811
3 | 8:10.62 | 6:41.05 | 36812 | 66891
4 | 14:51.67 | 3:26.13 | 66892 | 82354
5 | 18:18.05 | 4:48.30 | 82355 | 103984
6 | 23:06.35 | 6:33.55 | 103985 | 133514
7 | 29:40.15 | 4:54.05 | 133515 | 155569
8 | 34:34.20 | 4:40.50 | 155570 | 176619
9 | 39:14.70 | 3:18.35 | 176620 | 191504

Range status and errors

Selected range

Filename C:\CDRip by Deminbek\Sepultura – Arise [RoadRacer, RO 9328-2, Holland].wav

Peak level 100.0 %
Extraction speed 6.5 X
Range quality 99.9 %
Test CRC 4D57EFF9
Copy CRC 4D57EFF9
Copy OK

No errors occurred

AccurateRip summary

Track 1 accurately ripped (confidence 73) [B4A4458D] (AR v2)
Track 2 accurately ripped (confidence 74) [C966EFB6] (AR v2)
Track 3 accurately ripped (confidence 73) [C0905A4B] (AR v2)
Track 4 accurately ripped (confidence 73) [1998DB8D] (AR v2)
Track 5 accurately ripped (confidence 72) [FA78786D] (AR v2)
Track 6 accurately ripped (confidence 71) [1C8DA454] (AR v2)
Track 7 accurately ripped (confidence 72) [F71DDF59] (AR v2)
Track 8 accurately ripped (confidence 72) [7812C8E5] (AR v2)
Track 9 accurately ripped (confidence 72) [60D7AB91] (AR v2)

All tracks accurately ripped

End of status report

—- CUETools DB Plugin V2.1.4

[CTDB TOCID: XdmoY12aRUCSRghXPcaCCVcfmCg-] found
Submit result: XdmoY12aRUCSRghXPcaCCVcfmCg- has been confirmed
Track | CTDB Status
1 | (3/3) Accurately ripped
2 | (3/3) Accurately ripped
3 | (3/3) Accurately ripped
4 | (3/3) Accurately ripped
5 | (3/3) Accurately ripped
6 | (3/3) Accurately ripped
7 | (3/3) Accurately ripped
8 | (3/3) Accurately ripped
9 | (3/3) Accurately ripped

==== Log checksum 475DD5CC073C079F0FC06ED7E48265D99C14CB513299E1640D333D3AAC853B10 ====

REM GENRE “Thrash Metal”
REM DATE 1991
REM DISCID 6E09F909
REM COMMENT “ExactAudioCopy v1.0b3”
PERFORMER “Sepultura”
TITLE “Arise [RoadRacer, RO 9328-2, Holland]”
FILE “Sepultura – Arise [RoadRacer, RO 9328-2, Holland].flac” WAVE
TRACK 01 AUDIO
TITLE “Arise”
PERFORMER “Sepultura”
INDEX 00 00:00:00
INDEX 01 00:00:32
TRACK 02 AUDIO
TITLE “Dead Embryonic Cells”
PERFORMER “Sepultura”
INDEX 01 03:18:40
TRACK 03 AUDIO
TITLE “Desperate Cry”
PERFORMER “Sepultura”
INDEX 00 08:10:55
INDEX 01 08:10:62
TRACK 04 AUDIO
TITLE “Murder”
PERFORMER “Sepultura”
INDEX 00 14:51:50
INDEX 01 14:51:67
TRACK 05 AUDIO
TITLE “Subtraction”
PERFORMER “Sepultura”
INDEX 01 18:18:05
TRACK 06 AUDIO
TITLE “Altered State”
PERFORMER “Sepultura”
INDEX 00 23:05:60
INDEX 01 23:06:35
TRACK 07 AUDIO
TITLE “Under Siege (Regnum Irae)”
PERFORMER “Sepultura”
INDEX 01 29:40:15
TRACK 08 AUDIO
TITLE “Meaningless Movements”
PERFORMER “Sepultura”
INDEX 00 34:34:10
INDEX 01 34:34:20
TRACK 09 AUDIO
TITLE “Infected Voice”
PERFORMER “Sepultura”
INDEX 00 39:14:35
INDEX 01 39:14:70


Leave a Reply

Your email address will not be published. Required fields are marked *

Enter the text from the image below
 

This site uses Akismet to reduce spam. Learn how your comment data is processed.