Sepultura – Arise (Remastered)




Artist: Sepultura
Year: 1991/1997
Genre: Metal
Notes: Discogs
Add. Notes: Remastered
Cover incl.: Yes
Encoder: FLAC
Bitrate: ~1000 kBit/s (44.1 kHz/16 Bit/s)
Log & Cue incl.: Yes
Size: 526 MB
Password: “slam” (without ” “)


All Downloads/Hosters are compatible

Download 1
KatFile.com
Turbobit.net
FileFactory.com
Rapidgator.net
Download 2
KatFile.com
Turbobit.net
FileFactory.com
Rapidgator.net

Tracklist:

1 - Arise - 3:19
2 - Dead Embryonic Cells - 4:52
3 - Desperate Cry - 6:41
4 - Murder - 3:26
5 - Subtraction - 4:48
6 - Altered State - 6:34
7 - Under Siege (Regnum Irae) - 4:54
8 - Meaningless Movements - 4:41
9 - Infected Voice - 3:19
Bonus Tracks
10 - Orgasmatron - 4:14
11 - Intro - 1:33
12 - C.I.U. (Criminals In Uniform) - 
4:17
13 - Desperate Cry (Scott Burns 
Mix) - 6:43

EAC-Log, CUE-Sheed & NFO:

Click to open spoiler
Exact Audio Copy V1.0 beta 3 from 29. August 2011

EAC extraction logfile from 31. May 2014, 11:10

Sepultura / Arise [Roadrunner, RR 8763-2, USA]

Used drive : MATSHITABD-MLT UJ240AS Adapter: 0 ID: 1

Read mode : Secure
Utilize accurate stream : Yes
Defeat audio cache : Yes
Make use of C2 pointers : No

Read offset correction : 103
Overread into Lead-In and Lead-Out : No
Fill up missing offset samples with silence : Yes
Delete leading and trailing silent blocks : No
Null samples used in CRC calculations : Yes
Used interface : Installed external ASPI interface

Used output format : User Defined Encoder
Selected bitrate : 1024 kBit/s
Quality : High
Add ID3 tag : No
Command line compressor : C:\Program Files (x86)\Exact Audio Copy\FLAC\FLAC.EXE
Additional command line options : -V -8 -T “Date=%year%” -T “Genre=%genre%” %source%

TOC of the extracted CD

Track | Start | Length | Start sector | End sector
———————————————————
1 | 0:00.00 | 3:18.42 | 0 | 14891
2 | 3:18.42 | 4:52.13 | 14892 | 36804
3 | 8:10.55 | 6:41.02 | 36805 | 66881
4 | 14:51.57 | 3:26.25 | 66882 | 82356
5 | 18:18.07 | 4:47.58 | 82357 | 103939
6 | 23:05.65 | 6:34.30 | 103940 | 133519
7 | 29:40.20 | 4:54.10 | 133520 | 155579
8 | 34:34.30 | 4:41.02 | 155580 | 176656
9 | 39:15.32 | 3:18.48 | 176657 | 191554
10 | 42:34.05 | 4:14.29 | 191555 | 210633
11 | 46:48.34 | 1:33.33 | 210634 | 217641
12 | 48:21.67 | 4:16.73 | 217642 | 236914
13 | 52:38.65 | 6:45.12 | 236915 | 267301

Range status and errors

Selected range

Filename C:\CDRip by Deminbek\Sepultura – Arise [Roadrunner, RR 8763-2, USA].wav

Peak level 100.0 %
Extraction speed 4.1 X
Range quality 99.9 %
Test CRC EAD6BB73
Copy CRC EAD6BB73
Copy OK

No errors occurred

AccurateRip summary

Track 1 accurately ripped (confidence 6) [9069CDD8] (AR v1)
Track 2 accurately ripped (confidence 6) [E21A15E0] (AR v1)
Track 3 accurately ripped (confidence 6) [957BFC05] (AR v1)
Track 4 accurately ripped (confidence 6) [EAD64D76] (AR v1)
Track 5 accurately ripped (confidence 6) [8265EE57] (AR v1)
Track 6 accurately ripped (confidence 6) [0FB1229B] (AR v1)
Track 7 accurately ripped (confidence 6) [CF774BDC] (AR v1)
Track 8 accurately ripped (confidence 6) [73735DF3] (AR v1)
Track 9 accurately ripped (confidence 6) [580890AC] (AR v1)
Track 10 accurately ripped (confidence 6) [62F40BF3] (AR v1)
Track 11 accurately ripped (confidence 6) [C21C018F] (AR v1)
Track 12 accurately ripped (confidence 6) [370EBFE1] (AR v1)
Track 13 accurately ripped (confidence 6) [FE242C10] (AR v1)

All tracks accurately ripped

End of status report

—- CUETools DB Plugin V2.1.4

[CTDB TOCID: .DPKXL8vzUb6FG8AzcckbqRYZr4-] found
Submit result: .DPKXL8vzUb6FG8AzcckbqRYZr4- has been confirmed
Track | CTDB Status
1 | (14/14) Accurately ripped
2 | (14/14) Accurately ripped
3 | (14/14) Accurately ripped
4 | (14/14) Accurately ripped
5 | (14/14) Accurately ripped
6 | (14/14) Accurately ripped
7 | (14/14) Accurately ripped
8 | (14/14) Accurately ripped
9 | (14/14) Accurately ripped
10 | (14/14) Accurately ripped
11 | (14/14) Accurately ripped
12 | (14/14) Accurately ripped
13 | (14/14) Accurately ripped

==== Log checksum F3FFBAB729AD8B8D854EF3350509E72C5E24F7D7E83105A46AA8B13E89919A48 ====

REM GENRE “Thrash Metal”
REM DATE 1997
REM DISCID A30DEC0D
REM COMMENT “ExactAudioCopy v1.0b3”
PERFORMER “Sepultura”
TITLE “Arise [Roadrunner, RR 8763-2, USA]”
FILE “Sepultura – Arise [Roadrunner, RR 8763-2, USA].flac” WAVE
TRACK 01 AUDIO
TITLE “Arise”
PERFORMER “Sepultura”
ISRC NLA329780651
INDEX 01 00:00:00
TRACK 02 AUDIO
TITLE “Dead Embryonic Cells”
PERFORMER “Sepultura”
ISRC NLA329780652
INDEX 01 03:18:42
TRACK 03 AUDIO
TITLE “Desperate Cry”
PERFORMER “Sepultura”
ISRC NLA329780653
INDEX 01 08:10:55
TRACK 04 AUDIO
TITLE “Murder”
PERFORMER “Sepultura”
ISRC NLA329780654
INDEX 01 14:51:57
TRACK 05 AUDIO
TITLE “Subtraction”
PERFORMER “Sepultura”
ISRC NLA329780655
INDEX 01 18:18:07
TRACK 06 AUDIO
TITLE “Altered State”
PERFORMER “Sepultura”
ISRC NLA329780656
INDEX 01 23:05:65
TRACK 07 AUDIO
TITLE “Under Siege (Regnum Irae)”
PERFORMER “Sepultura”
ISRC NLA329780657
INDEX 01 29:40:20
TRACK 08 AUDIO
TITLE “Meaningless Movements”
PERFORMER “Sepultura”
ISRC NLA329780658
INDEX 01 34:34:30
TRACK 09 AUDIO
TITLE “Infected Voice”
PERFORMER “Sepultura”
ISRC NLA329780659
INDEX 00 39:14:45
INDEX 01 39:15:32
TRACK 10 AUDIO
TITLE “Orgasmatron”
PERFORMER “Sepultura”
ISRC NLA329780660
INDEX 01 42:34:05
TRACK 11 AUDIO
TITLE “Intro”
PERFORMER “Sepultura”
ISRC NLA329780661
INDEX 01 46:48:34
TRACK 12 AUDIO
TITLE “C.I.U. (Criminals in Uniform)”
PERFORMER “Sepultura”
ISRC NLA329780662
INDEX 01 48:21:67
TRACK 13 AUDIO
TITLE “Desperate Cry (Scott Burns mix)”
PERFORMER “Sepultura”
ISRC NLA329780663
INDEX 01 52:38:65


Leave a Reply

Your email address will not be published. Required fields are marked *

This site uses Akismet to reduce spam. Learn how your comment data is processed.