Sepultura – Arise Alive




[Total: 0    Average: 0/5]

Artist: Sepultura
Year: 1991
Genre: Metal
Notes: Discogs
Add. Notes:
Cover incl.: Yes
Encoder: FLAC
Bitrate: ~900 kBit/s (44.1 kHz/16 Bit/s)
Log & Cue incl.: Yes
Size: 405 MB
Password: “slam” (without ” “)


All Downloads/Hosters are compatible

Download 1
Share-online.biz
KatFile.com
Rapidgator.net
Mexa.sh
Download 2
Share-online.biz
KatFile.com
Rapidgator.net
Mexa.sh

Tracklist:

1 - Arise - 4:25
2 - Inner Self - 4:51
3 - Mass Hypnosis - 4:08
4 - Dead Embryonic Cells - 4:05
5 - Desperate Cry - 5:57
6 - Slaves Of Pain - 4:06
7 - Guitar Solo - 1:24
8 - Under Siege (Regnum Irae) - 4:23
9 - Troops Of Doom - 2:57
10 - Altered State - 8:38
11 - Orgasmatron - 4:17
12 - Beneath The Remains - 4:23
13 - Symptom Of The Universe - 4:19
14 - Policia - 1:45

EAC-Log, CUE-Sheed & NFO:

Click to open spoiler
Exact Audio Copy V1.0 beta 3 from 29. August 2011

EAC extraction logfile from 30. May 2014, 17:57

Sepultura / Arise Alive [Metal Memory, MM 90032, Italy]

Used drive : PIONEER DVD-RW DVR-112D Adapter: 1 ID: 0

Read mode : Secure
Utilize accurate stream : Yes
Defeat audio cache : Yes
Make use of C2 pointers : No

Read offset correction : 48
Overread into Lead-In and Lead-Out : No
Fill up missing offset samples with silence : Yes
Delete leading and trailing silent blocks : No
Null samples used in CRC calculations : Yes
Used interface : Installed external ASPI interface

Used output format : User Defined Encoder
Selected bitrate : 1024 kBit/s
Quality : High
Add ID3 tag : No
Command line compressor : C:\Program Files\Exact Audio Copy\FLAC\FLAC.EXE
Additional command line options : -V -8 -T “Date=%year%” -T “Genre=%genre%” %source%

TOC of the extracted CD

Track | Start | Length | Start sector | End sector
———————————————————
1 | 0:00.00 | 4:25.25 | 0 | 19899
2 | 4:25.25 | 4:51.32 | 19900 | 41756
3 | 9:16.57 | 4:08.30 | 41757 | 60386
4 | 13:25.12 | 4:05.48 | 60387 | 78809
5 | 17:30.60 | 5:57.55 | 78810 | 105639
6 | 23:28.40 | 4:06.27 | 105640 | 124116
7 | 27:34.67 | 1:24.43 | 124117 | 130459
8 | 28:59.35 | 4:23.50 | 130460 | 150234
9 | 33:23.10 | 2:57.32 | 150235 | 163541
10 | 36:20.42 | 8:38.15 | 163542 | 202406
11 | 44:58.57 | 4:17.10 | 202407 | 221691
12 | 49:15.67 | 4:23.10 | 221692 | 241426
13 | 53:39.02 | 4:19.65 | 241427 | 260916
14 | 57:58.67 | 1:46.00 | 260917 | 268866

Range status and errors

Selected range

Filename C:\CDRip by Deminbek\Sepultura – Arise Alive [Metal Memory, MM 90032, Italy].wav

Peak level 98.3 %
Extraction speed 7.3 X
Range quality 99.9 %
Test CRC 67046318
Copy CRC 67046318
Copy OK

No errors occurred

AccurateRip summary

Track 1 accurately ripped (confidence 3) [24C640E1] (AR v1)
Track 2 cannot be verified as accurate (confidence 2) [AFB7F025], AccurateRip returned [9E5A50BB] (AR v2)
Track 3 accurately ripped (confidence 2) [39D6AD36] (AR v1)
Track 4 accurately ripped (confidence 3) [CE8BA325] (AR v1)
Track 5 accurately ripped (confidence 2) [6092B829] (AR v1)
Track 6 accurately ripped (confidence 3) [6DB27DEB] (AR v1)
Track 7 accurately ripped (confidence 3) [57CDE694] (AR v1)
Track 8 accurately ripped (confidence 3) [A44A18EB] (AR v1)
Track 9 accurately ripped (confidence 3) [205F3ADA] (AR v1)
Track 10 accurately ripped (confidence 3) [6F7DACAD] (AR v1)
Track 11 accurately ripped (confidence 3) [4BEC3CCF] (AR v1)
Track 12 accurately ripped (confidence 3) [3290EDBD] (AR v1)
Track 13 accurately ripped (confidence 3) [3A728B1F] (AR v1)
Track 14 accurately ripped (confidence 3) [9A0098A1] (AR v1)

13 трек(и) скопированы точно
1 трек(и) не удалось проверить на точность

Some tracks could not be verified as accurate

End of status report

—- CUETools DB Plugin V2.1.4

[CTDB TOCID: nU_41mXPBOPHHwU5.V3qfOJy2Fc-] found
Submit result: nU_41mXPBOPHHwU5.V3qfOJy2Fc- has been uploaded
Track | CTDB Status
1 | (2/2) Accurately ripped
2 | (1/2) Differs in 18 samples @02:18:70,02:28:61, or (1/2) differs in 26 samples @02:28:08-02:28:09
3 | (2/2) Accurately ripped
4 | (2/2) Accurately ripped
5 | (2/2) Accurately ripped
6 | (2/2) Accurately ripped
7 | (2/2) Accurately ripped
8 | (2/2) Accurately ripped
9 | (2/2) Accurately ripped
10 | (2/2) Accurately ripped
11 | (2/2) Accurately ripped
12 | (2/2) Accurately ripped
13 | (2/2) Accurately ripped
14 | (2/2) Accurately ripped
If you are sure that your rip contains errors, you can use CUETools to repair it.

==== Log checksum 319466E3E0EBC067164029E147933D03DA84C8D1110F625891A1D328CD036903 ====

REM GENRE “Thrash Metal”
REM DATE 1991
REM DISCID AA0E000E
REM COMMENT “ExactAudioCopy v1.0b3”
PERFORMER “Sepultura”
TITLE “Arise Alive [Metal Memory, MM 90032, Italy]”
FILE “Sepultura – Arise Alive [Metal Memory, MM 90032, Italy].flac” WAVE
TRACK 01 AUDIO
TITLE “Arise”
PERFORMER “Sepultura”
INDEX 01 00:00:00
TRACK 02 AUDIO
TITLE “Inner Self”
PERFORMER “Sepultura”
INDEX 01 04:25:25
TRACK 03 AUDIO
TITLE “Mass Hypnosis”
PERFORMER “Sepultura”
INDEX 01 09:16:57
TRACK 04 AUDIO
TITLE “Dead Embryonic Cells”
PERFORMER “Sepultura”
INDEX 01 13:25:12
TRACK 05 AUDIO
TITLE “Desperate Cry”
PERFORMER “Sepultura”
INDEX 01 17:30:60
TRACK 06 AUDIO
TITLE “Slaves Of Pain”
PERFORMER “Sepultura”
INDEX 01 23:28:40
TRACK 07 AUDIO
TITLE “Guitar Solo”
PERFORMER “Sepultura”
INDEX 01 27:34:67
TRACK 08 AUDIO
TITLE “Under Siege (Regnum Irae)”
PERFORMER “Sepultura”
INDEX 01 28:59:35
TRACK 09 AUDIO
TITLE “Troops Of Doom”
PERFORMER “Sepultura”
INDEX 01 33:23:10
TRACK 10 AUDIO
TITLE “Altered State”
PERFORMER “Sepultura”
INDEX 01 36:20:42
TRACK 11 AUDIO
TITLE “Orgasmatron”
PERFORMER “Sepultura”
INDEX 01 44:58:57
TRACK 12 AUDIO
TITLE “Beneath The Remains”
PERFORMER “Sepultura”
INDEX 01 49:15:67
TRACK 13 AUDIO
TITLE “Symptom Of The Universe”
PERFORMER “Sepultura”
INDEX 01 53:39:02
TRACK 14 AUDIO
TITLE “Policia”
PERFORMER “Sepultura”
INDEX 01 57:58:67


Spread the Download

Leave a Reply

Your email address will not be published. Required fields are marked *

Enter the text from the image below
 

This site uses Akismet to reduce spam. Learn how your comment data is processed.