Sepultura – Against (Promo)




[Total: 0    Average: 0/5]

Artist: Sepultura
Year: 1998
Genre: Rock
Notes: Discogs
Add. Notes: Promo
Cover incl.: Yes
Encoder: FLAC
Bitrate: ~1000 kBit/s (44.1 kHz/16 Bit/s)
Log & Cue incl.: Yes
Size: 343,41 MB
Password: “slam” (without ” “)


All Downloads/Hosters are compatible

Download 1
Share-online.biz
KatFile.com
Rapidgator.net
Turbobit.net
Download 2
Share-online.biz
KatFile.com
Rapidgator.net
Turbobit.net

Tracklist:

1. Against
2. Choke
3. Old Earth
4. Floaters In Mud
5. Boycott
6. Rumors
7. Tribus
8. Common Bonds
9. F.O.E.
10. Reza
11. Kamaitachi
12. Unconscious
13. Drowned Out
14. Hatred Aside
15. T3rcermillennium

EAC-Log, CUE-Sheed & NFO:

Click to open spoiler
Exact Audio Copy V1.0 beta 3 from 29. August 2011

EAC extraction logfile from 30. May 2014, 16:23

Sepultura / Against [Roadrunner, RR Promo 353, USA]

Used drive : MATSHITABD-MLT UJ240AS Adapter: 0 ID: 1

Read mode : Secure
Utilize accurate stream : Yes
Defeat audio cache : Yes
Make use of C2 pointers : No

Read offset correction : 103
Overread into Lead-In and Lead-Out : No
Fill up missing offset samples with silence : Yes
Delete leading and trailing silent blocks : No
Null samples used in CRC calculations : Yes
Used interface : Installed external ASPI interface

Used output format : User Defined Encoder
Selected bitrate : 1024 kBit/s
Quality : High
Add ID3 tag : No
Command line compressor : C:\Program Files (x86)\Exact Audio Copy\FLAC\FLAC.EXE
Additional command line options : -V -8 -T “Date=%year%” -T “Genre=%genre%” %source%

TOC of the extracted CD

Track | Start | Length | Start sector | End sector
———————————————————
1 | 0:00.00 | 1:54.37 | 0 | 8586
2 | 1:54.37 | 3:36.32 | 8587 | 24818
3 | 5:30.69 | 4:28.70 | 24819 | 44988
4 | 9:59.64 | 4:58.51 | 44989 | 67389
5 | 14:58.40 | 3:11.12 | 67390 | 81726
6 | 18:09.52 | 3:10.58 | 81727 | 96034
7 | 21:20.35 | 1:38.62 | 96035 | 103446
8 | 22:59.22 | 2:59.23 | 103447 | 116894
9 | 25:58.45 | 2:07.47 | 116895 | 126466
10 | 28:06.17 | 2:17.70 | 126467 | 136811
11 | 30:24.12 | 3:06.35 | 136812 | 150796
12 | 33:30.47 | 3:37.45 | 150797 | 167116
13 | 37:08.17 | 1:28.70 | 167117 | 173786
14 | 38:37.12 | 5:13.68 | 173787 | 197329
15 | 43:51.05 | 3:55.10 | 197330 | 214964

Range status and errors

Selected range

Filename C:\CDRip by Deminbek\Sepultura – Against [Roadrunner, RR Promo 353, USA].wav

Peak level 99.8 %
Extraction speed 3.9 X
Range quality 100.0 %
Test CRC 153BBC96
Copy CRC 153BBC96
Copy OK

No errors occurred

AccurateRip summary

Track 1 cannot be verified as accurate (confidence 2) [2901A2EE], AccurateRip returned [73C8CA30] (AR v2)
Track 2 cannot be verified as accurate (confidence 2) [117C71FD], AccurateRip returned [94D44A3F] (AR v2)
Track 3 cannot be verified as accurate (confidence 2) [ECB72E29], AccurateRip returned [77788A8F] (AR v2)
Track 4 cannot be verified as accurate (confidence 2) [B500904C], AccurateRip returned [A0EC0ABF] (AR v2)
Track 5 cannot be verified as accurate (confidence 2) [23EF9340], AccurateRip returned [126F9D0F] (AR v2)
Track 6 cannot be verified as accurate (confidence 2) [189AAC4E], AccurateRip returned [D2BF6A57] (AR v2)
Track 7 cannot be verified as accurate (confidence 2) [8062CDFA], AccurateRip returned [281060E7] (AR v2)
Track 8 cannot be verified as accurate (confidence 2) [4A3491E7], AccurateRip returned [82AF57B5] (AR v2)
Track 9 cannot be verified as accurate (confidence 2) [DC2F3FE4], AccurateRip returned [BD884084] (AR v2)
Track 10 cannot be verified as accurate (confidence 2) [A0DEFF7E], AccurateRip returned [37EF7DD6] (AR v2)
Track 11 cannot be verified as accurate (confidence 2) [BCCE45EE], AccurateRip returned [015D05B3] (AR v2)
Track 12 cannot be verified as accurate (confidence 2) [872616E2], AccurateRip returned [10F1EC42] (AR v2)
Track 13 cannot be verified as accurate (confidence 2) [246EF967], AccurateRip returned [DB3AEE36] (AR v2)
Track 14 cannot be verified as accurate (confidence 2) [395CFC59], AccurateRip returned [4DBB2921] (AR v2)
Track 15 cannot be verified as accurate (confidence 2) [11BAFD17], AccurateRip returned [92FFA154] (AR v2)

No tracks could be verified as accurate
You may have a different pressing from the one(s) in the database

End of status report

—- CUETools DB Plugin V2.1.4

[CTDB TOCID: 4_asSso_Ctl_dEytCBN5C2fXK2I-] disk not present in database
Submit result: 4_asSso_Ctl_dEytCBN5C2fXK2I- has been uploaded

==== Log checksum 985C299F256396523E4649CEC396D29A7FC6776004E5BBA83037336B1AFED606 ====

REM GENRE “Thrash Metal”
REM DATE 1998
REM DISCID A40B320F
REM COMMENT “ExactAudioCopy v1.0b3”
PERFORMER “Sepultura”
TITLE “Against [Roadrunner, RR Promo 353, USA]”
FILE “Sepultura – Against [Roadrunner, RR Promo 353, USA].flac” WAVE
TRACK 01 AUDIO
TITLE “Against”
PERFORMER “Sepultura”
ISRC NLA329880438
INDEX 01 00:00:00
TRACK 02 AUDIO
TITLE “Choke”
PERFORMER “Sepultura”
ISRC NLA329880439
INDEX 01 01:54:37
TRACK 03 AUDIO
TITLE “Old Earth”
PERFORMER “Sepultura”
ISRC NLA329880440
INDEX 01 05:30:69
TRACK 04 AUDIO
TITLE “Floaters in Mud”
PERFORMER “Sepultura”
ISRC NLA329880441
INDEX 01 09:59:64
TRACK 05 AUDIO
TITLE “Boycott”
PERFORMER “Sepultura”
ISRC NLA329880442
INDEX 01 14:58:40
TRACK 06 AUDIO
TITLE “Rumors”
PERFORMER “Sepultura”
ISRC NLA329880443
INDEX 01 18:09:52
TRACK 07 AUDIO
TITLE “Tribus”
PERFORMER “Sepultura”
ISRC NLA329880444
INDEX 01 21:20:35
TRACK 08 AUDIO
TITLE “Common Bonds”
PERFORMER “Sepultura”
ISRC NLA329880445
INDEX 01 22:59:22
TRACK 09 AUDIO
TITLE “F.O.E.”
PERFORMER “Sepultura”
ISRC NLA329880446
INDEX 01 25:58:45
TRACK 10 AUDIO
TITLE “Reza”
PERFORMER “Sepultura”
ISRC NLA329880447
INDEX 01 28:06:17
TRACK 11 AUDIO
TITLE “Kamaitachi”
PERFORMER “Sepultura”
ISRC NLA329880448
INDEX 01 30:24:12
TRACK 12 AUDIO
TITLE “Unconscious”
PERFORMER “Sepultura”
ISRC NLA329880449
INDEX 01 33:30:47
TRACK 13 AUDIO
TITLE “Drowned Out”
PERFORMER “Sepultura”
ISRC NLA329880450
INDEX 01 37:08:17
TRACK 14 AUDIO
TITLE “Hatred Aside”
PERFORMER “Sepultura”
ISRC NLA329880451
INDEX 01 38:37:12
TRACK 15 AUDIO
TITLE “T3rcermillennium”
PERFORMER “Sepultura”
ISRC NLA329880452
INDEX 01 43:51:05


Spread the Download

Leave a Reply

Your email address will not be published. Required fields are marked *

Enter the text from the image below
 

This site uses Akismet to reduce spam. Learn how your comment data is processed.