Sepultura – Against (Korean Special Edition)




Artist: Sepultura
Year: 1998
Genre: Rock
Notes: Discogs
Add. Notes: Korean Special Edition
Cover incl.: Yes
Encoder: FLAC
Bitrate: ~1000 kBit/s (44.1 kHz/16 Bit/s)
Log & Cue incl.: Yes
Size: 483,3 MB
Password: “slam” (without ” “)


All Downloads/Hosters are compatible

Download 1
KatFile.com
Turbobit.net
FileFactory.com
Rapidgator.net
Download 2
KatFile.com
Turbobit.net
FileFactory.com
Rapidgator.net

Tracklist:

1 - Against - 1:54
2 - Choke - 3:36
3 - Rumors - 3:04
4 - Old Earth - 4:28
5 - Floaters In Mud - 4:58
6 - Boycott - 3:10
7 - Tribus - 1:38
8 - Common Bonds - 2:58
9 - F.O.E. - 2:08
10 - Reza - 2:16
11 - Unconscious - 3:37
12 - Kamaitachi - 3:03
13 - Drowned Out - 1:28
14 - Hatred Aside - 5:13
15 - T3rcermillennium - 3:54
Bonus Track:
16 - Against (4 Track Pre-Listening) - 9:15

EAC-Log, CUE-Sheed & NFO:

Click to open spoiler
Exact Audio Copy V1.0 beta 3 from 29. August 2011

EAC extraction logfile from 30. May 2014, 16:27

Sepultura / Against [Jigu,Inc., Roadrunner, JRCD-1150, Korea]

Used drive : PIONEER DVD-RW DVR-112D Adapter: 1 ID: 0

Read mode : Secure
Utilize accurate stream : Yes
Defeat audio cache : Yes
Make use of C2 pointers : No

Read offset correction : 48
Overread into Lead-In and Lead-Out : No
Fill up missing offset samples with silence : Yes
Delete leading and trailing silent blocks : No
Null samples used in CRC calculations : Yes
Used interface : Installed external ASPI interface

Used output format : User Defined Encoder
Selected bitrate : 1024 kBit/s
Quality : High
Add ID3 tag : No
Command line compressor : C:\Program Files\Exact Audio Copy\FLAC\FLAC.EXE
Additional command line options : -V -8 -T “Date=%year%” -T “Genre=%genre%” %source%

TOC of the extracted CD

Track | Start | Length | Start sector | End sector
———————————————————
1 | 0:00.00 | 1:54.55 | 0 | 8604
2 | 1:54.55 | 3:36.27 | 8605 | 24831
3 | 5:31.07 | 3:04.57 | 24832 | 38688
4 | 8:35.64 | 4:28.43 | 38689 | 58831
5 | 13:04.32 | 4:58.60 | 58832 | 81241
6 | 18:03.17 | 3:10.58 | 81242 | 95549
7 | 21:14.00 | 1:38.30 | 95550 | 102929
8 | 22:52.30 | 2:59.35 | 102930 | 116389
9 | 25:51.65 | 2:07.57 | 116390 | 125971
10 | 27:59.47 | 2:16.38 | 125972 | 136209
11 | 30:16.10 | 3:37.12 | 136210 | 152496
12 | 33:53.22 | 3:03.33 | 152497 | 166254
13 | 36:56.55 | 1:29.25 | 166255 | 172954
14 | 38:26.05 | 5:13.52 | 172955 | 196481
15 | 43:39.57 | 3:55.05 | 196482 | 214111
16 | 47:34.62 | 9:15.47 | 214112 | 255783

Range status and errors

Selected range

Filename C:\CDRip by Deminbek\Sepultura – Against [Jigu,Inc., Roadrunner, JRCD-1150, Korea].wav

Peak level 99.9 %
Extraction speed 7.3 X
Range quality 100.0 %
Test CRC F4F7FB4E
Copy CRC F4F7FB4E
Copy OK

No errors occurred

AccurateRip summary

Track 1 accurately ripped (confidence 1) [C60E6D86] (AR v1)
Track 2 accurately ripped (confidence 1) [24F0970D] (AR v1)
Track 3 accurately ripped (confidence 1) [9B3901EE] (AR v1)
Track 4 accurately ripped (confidence 1) [02A1B396] (AR v1)
Track 5 accurately ripped (confidence 1) [0C6F1F0D] (AR v1)
Track 6 accurately ripped (confidence 1) [021664DD] (AR v1)
Track 7 accurately ripped (confidence 1) [06AB89B7] (AR v1)
Track 8 accurately ripped (confidence 1) [1D454C15] (AR v1)
Track 9 accurately ripped (confidence 1) [A14F3BBB] (AR v1)
Track 10 accurately ripped (confidence 1) [A317E965] (AR v1)
Track 11 accurately ripped (confidence 1) [FC955A32] (AR v1)
Track 12 accurately ripped (confidence 1) [E3B39EB7] (AR v1)
Track 13 accurately ripped (confidence 1) [21AA9CA3] (AR v1)
Track 14 accurately ripped (confidence 1) [3CB2E764] (AR v1)
Track 15 accurately ripped (confidence 1) [2469CEA0] (AR v1)
Track 16 accurately ripped (confidence 1) [448BA613] (AR v1)

All tracks accurately ripped

End of status report

—- CUETools DB Plugin V2.1.4

[CTDB TOCID: d6ERRp7SvEtcLx6w.r75XCBmXgw-] disk not present in database
Submit result: d6ERRp7SvEtcLx6w.r75XCBmXgw- has been uploaded

==== Log checksum 681A548AE431EC87D01C2FF059C1A30AE2C840A984B0B4739715E87C03E9AA53 ====

REM GENRE “Thrash Metal”
REM DATE 1998
REM DISCID D60D5210
REM COMMENT “ExactAudioCopy v1.0b3”
PERFORMER “Sepultura”
TITLE “Against [Jigu,Inc., Roadrunner, JRCD-1150, Korea]”
FILE “Sepultura – Against [Jigu,Inc., Roadrunner, JRCD-1150, Korea].flac” WAVE
TRACK 01 AUDIO
TITLE “Against”
PERFORMER “Sepultura”
INDEX 01 00:00:00
TRACK 02 AUDIO
TITLE “Choke”
PERFORMER “Sepultura”
INDEX 01 01:54:55
TRACK 03 AUDIO
TITLE “Rumors”
PERFORMER “Sepultura”
INDEX 01 05:31:07
TRACK 04 AUDIO
TITLE “Old Earth”
PERFORMER “Sepultura”
INDEX 01 08:35:64
TRACK 05 AUDIO
TITLE “Floaters In Mud”
PERFORMER “Sepultura”
INDEX 01 13:04:32
TRACK 06 AUDIO
TITLE “Boycott”
PERFORMER “Sepultura”
INDEX 01 18:03:17
TRACK 07 AUDIO
TITLE “Tribus”
PERFORMER “Sepultura”
INDEX 01 21:14:00
TRACK 08 AUDIO
TITLE “Common Bonds”
PERFORMER “Sepultura”
INDEX 01 22:52:30
TRACK 09 AUDIO
TITLE “F.O.E.”
PERFORMER “Sepultura”
INDEX 01 25:51:65
TRACK 10 AUDIO
TITLE “Reza”
PERFORMER “Sepultura”
INDEX 01 27:59:47
TRACK 11 AUDIO
TITLE “Unconscious”
PERFORMER “Sepultura”
INDEX 01 30:16:10
TRACK 12 AUDIO
TITLE “Kamaitachi”
PERFORMER “Sepultura”
INDEX 01 33:53:22
TRACK 13 AUDIO
TITLE “Drowned Out”
PERFORMER “Sepultura”
INDEX 01 36:56:55
TRACK 14 AUDIO
TITLE “Hatred Aside”
PERFORMER “Sepultura”
INDEX 01 38:26:05
TRACK 15 AUDIO
TITLE “T3rcermillennium”
PERFORMER “Sepultura”
INDEX 01 43:39:57
TRACK 16 AUDIO
TITLE “[Bonus Track]”
PERFORMER “Sepultura”
INDEX 01 47:34:62


Leave a Reply

Your email address will not be published. Required fields are marked *

Enter the text from the image below
 

This site uses Akismet to reduce spam. Learn how your comment data is processed.