Sepultura – Against (Japanese Edition)




Artist: Sepultura
Year: 1998
Genre: Rock
Notes: Discogs
Add. Notes: Japanese Edition
Cover incl.: Yes
Encoder: FLAC
Bitrate: ~1000 kBit/s (44.1 kHz/16 Bit/s)
Log & Cue incl.: Yes
Size: 474,1 MB
Password: “slam” (without ” “)


All Downloads/Hosters are compatible

Download 1
KatFile.com
Turbobit.net
FileFactory.com
Rapidgator.net
Download 2
KatFile.com
Turbobit.net
FileFactory.com
Rapidgator.net

Tracklist:

1 Against 1:54
2 Choke 3:36
3 Rumors 3:04
4 Old Earth 4:28
5 Floaters In Mud 4:58
6 Boycott 3:10
7 Tribus 1:38
8 Common Bonds 2:58
9 F.O.E. 2:08
10 Reza 2:16
11 Unconscious 3:37
12 Kamaitachi 3:03
13 Drowned Out 1:28
14 Hatred Aside 5:13
15 T3rcermillennium 3:54
16 Gene Machine / Don't Bother Me 2:51
17 Prenuncio 5:10

EAC-Log, CUE-Sheed & NFO:

Click to open spoiler
Exact Audio Copy V1.0 beta 3 from 29. August 2011

EAC extraction logfile from 31. May 2014, 10:01

Sepultura / Against [Roadrunner, RRCY-1080, Japan]

Used drive : PIONEER DVD-RW DVR-112D Adapter: 1 ID: 0

Read mode : Secure
Utilize accurate stream : Yes
Defeat audio cache : Yes
Make use of C2 pointers : No

Read offset correction : 48
Overread into Lead-In and Lead-Out : No
Fill up missing offset samples with silence : Yes
Delete leading and trailing silent blocks : No
Null samples used in CRC calculations : Yes
Used interface : Installed external ASPI interface

Used output format : User Defined Encoder
Selected bitrate : 1024 kBit/s
Quality : High
Add ID3 tag : No
Command line compressor : C:\Program Files\Exact Audio Copy\FLAC\FLAC.EXE
Additional command line options : -V -8 -T “Date=%year%” -T “Genre=%genre%” %source%

TOC of the extracted CD

Track | Start | Length | Start sector | End sector
———————————————————
1 | 0:00.00 | 1:54.40 | 0 | 8589
2 | 1:54.40 | 3:36.45 | 8590 | 24834
3 | 5:31.10 | 3:04.20 | 24835 | 38654
4 | 8:35.30 | 4:28.72 | 38655 | 58826
5 | 13:04.27 | 4:58.45 | 58827 | 81221
6 | 18:02.72 | 3:10.70 | 81222 | 95541
7 | 21:13.67 | 1:38.23 | 95542 | 102914
8 | 22:52.15 | 2:58.72 | 102915 | 116336
9 | 25:51.12 | 2:08.00 | 116337 | 125936
10 | 27:59.12 | 2:16.65 | 125937 | 136201
11 | 30:16.02 | 3:37.40 | 136202 | 152516
12 | 33:53.42 | 3:03.20 | 152517 | 166261
13 | 36:56.62 | 1:28.70 | 166262 | 172931
14 | 38:25.57 | 5:13.68 | 172932 | 196474
15 | 43:39.50 | 3:54.57 | 196475 | 214081
16 | 47:34.32 | 2:51.58 | 214082 | 226964
17 | 50:26.15 | 5:10.25 | 226965 | 250239

Range status and errors

Selected range

Filename C:\CDRip by Deminbek\Sepultura – Against [Roadrunner, RRCY-1080, Japan].wav

Peak level 99.8 %
Extraction speed 7.7 X
Range quality 100.0 %
Test CRC 4731E6F1
Copy CRC 4731E6F1
Copy OK

No errors occurred

AccurateRip summary

Track 1 accurately ripped (confidence 1) [599738FB] (AR v2)
Track 2 accurately ripped (confidence 1) [35DD4EA2] (AR v2)
Track 3 accurately ripped (confidence 1) [CE5A169F] (AR v2)
Track 4 accurately ripped (confidence 1) [7F08E3B3] (AR v2)
Track 5 accurately ripped (confidence 1) [CB39D900] (AR v2)
Track 6 accurately ripped (confidence 1) [57F55A2D] (AR v2)
Track 7 accurately ripped (confidence 1) [C2F3AFAE] (AR v2)
Track 8 accurately ripped (confidence 1) [3277A897] (AR v2)
Track 9 accurately ripped (confidence 1) [49E8532D] (AR v2)
Track 10 accurately ripped (confidence 1) [0BD9E1E7] (AR v2)
Track 11 accurately ripped (confidence 1) [A03E0AC4] (AR v2)
Track 12 accurately ripped (confidence 1) [5D8398C3] (AR v2)
Track 13 accurately ripped (confidence 1) [A4023248] (AR v2)
Track 14 accurately ripped (confidence 1) [6201D2C8] (AR v2)
Track 15 accurately ripped (confidence 1) [EF89F315] (AR v2)
Track 16 accurately ripped (confidence 1) [29C99614] (AR v2)
Track 17 accurately ripped (confidence 1) [84C238CE] (AR v2)

All tracks accurately ripped

End of status report

—- CUETools DB Plugin V2.1.4

[CTDB TOCID: GiRfEQQEmk.Z2GpHkdnzn8THz9U-] found
Submit result: GiRfEQQEmk.Z2GpHkdnzn8THz9U- has been confirmed
Track | CTDB Status
1 | (3/3) Accurately ripped
2 | (3/3) Accurately ripped
3 | (3/3) Accurately ripped
4 | (3/3) Accurately ripped
5 | (3/3) Accurately ripped
6 | (3/3) Accurately ripped
7 | (3/3) Accurately ripped
8 | (3/3) Accurately ripped
9 | (3/3) Accurately ripped
10 | (3/3) Accurately ripped
11 | (3/3) Accurately ripped
12 | (3/3) Accurately ripped
13 | (3/3) Accurately ripped
14 | (3/3) Accurately ripped
15 | (3/3) Accurately ripped
16 | (3/3) Accurately ripped
17 | (3/3) Accurately ripped

==== Log checksum 7C51001DC99D228FCC0A4D3F07756209F573BF94A47FA98E212DF04EB3FF6F9B ====

REM GENRE “Thrash Metal”
REM DATE 1998
REM DISCID E00D0811
REM COMMENT “ExactAudioCopy v1.0b3”
CATALOG 0000000000000
PERFORMER “Sepultura”
TITLE “Against [Roadrunner, RRCY-1080, Japan]”
FILE “Sepultura – Against [Roadrunner, RRCY-1080, Japan].flac” WAVE
TRACK 01 AUDIO
TITLE “Against”
PERFORMER “Sepultura”
INDEX 01 00:00:00
TRACK 02 AUDIO
TITLE “Choke”
PERFORMER “Sepultura”
INDEX 01 01:54:40
TRACK 03 AUDIO
TITLE “Rumors”
PERFORMER “Sepultura”
INDEX 01 05:31:10
TRACK 04 AUDIO
TITLE “Old Earth”
PERFORMER “Sepultura”
INDEX 01 08:35:30
TRACK 05 AUDIO
TITLE “Floaters in Mud”
PERFORMER “Sepultura”
INDEX 01 13:04:27
TRACK 06 AUDIO
TITLE “Boycott”
PERFORMER “Sepultura”
INDEX 01 18:02:72
TRACK 07 AUDIO
TITLE “Tribus”
PERFORMER “Sepultura”
INDEX 01 21:13:67
TRACK 08 AUDIO
TITLE “Common Bonds”
PERFORMER “Sepultura”
INDEX 01 22:52:15
TRACK 09 AUDIO
TITLE “F.O.E.”
PERFORMER “Sepultura”
INDEX 01 25:51:12
TRACK 10 AUDIO
TITLE “Reza”
PERFORMER “Sepultura”
INDEX 01 27:59:12
TRACK 11 AUDIO
TITLE “Unconscious”
PERFORMER “Sepultura”
INDEX 01 30:16:02
TRACK 12 AUDIO
TITLE “Kamaitachi”
PERFORMER “Sepultura”
INDEX 01 33:53:42
TRACK 13 AUDIO
TITLE “Drowned Out”
PERFORMER “Sepultura”
INDEX 01 36:56:62
TRACK 14 AUDIO
TITLE “Hatred Aside”
PERFORMER “Sepultura”
INDEX 01 38:25:57
TRACK 15 AUDIO
TITLE “T3rcermillennium”
PERFORMER “Sepultura”
INDEX 01 43:39:50
TRACK 16 AUDIO
TITLE “Gene Machine / Don’t Bother Me”
PERFORMER “Sepultura”
INDEX 01 47:34:32
TRACK 17 AUDIO
TITLE “Prenuncio”
PERFORMER “Sepultura”
INDEX 01 50:26:15


Leave a Reply

Your email address will not be published. Required fields are marked *

Enter the text from the image below
 

This site uses Akismet to reduce spam. Learn how your comment data is processed.